v

您的位置:VeryCD动漫动漫周边

动漫资源事务区


《会长是女仆大人插入曲》(Kaichou wa meidosama!)[Insert Song][含BK][TAK]

  • 状态: 精华资源
  • 摘要:
    发行时间2010年9月23日
    对白语言日语
    文字语言日文
  • 时间: 2010/10/13 16:46:45 发布 | 2010/10/18 14:31:21 更新
  • 分类: 动漫  动漫周边 

cecuby

精华资源: 13

全部资源: 13

相关: 分享到新浪微博   转播到腾讯微博   分享到开心网   分享到人人   分享到QQ空间   订阅本资源RSS更新   美味书签  subtitle
该内容尚未提供权利证明,无法提供下载。
中文名会长是女仆大人插入曲
英文名Kaichou wa meidosama!
别名会长はメイド様!Virtual Live Album U×ミシ -ナツコイ☆物语-
资源格式TAK
版本[Insert Song][含BK]
发行时间2010年9月23日
地区日本
对白语言日语
文字语言日文
简介

IPB Image

【故事介绍】

前身为男校的星华高中,学生会长美咲为了保护女学生,天天和旁若无人的男学生们战斗。然而,身为学生会长的她,却有个不为人知的秘密,那就是在女仆咖啡馆打工!而这个不为人知的秘密,却在某天被学校的模范生碓冰发现了。围绕两人的爱情喜剧就此展开……

【专辑介绍】

如需补源请PM

会长はメイド様! U×ミシ Virtual Live Album -ナツコイ☆物语-
CD (2010/9/23)
商品番号:GNCA-1267
ディスク枚数: 1
レーベル: ジェネオン・ユニバーサル
収録时间: 27 分
ASIN: B003UXUENW

TBS、MBS、CBC、BS-TBSにて大人気放送中の「会长はメイド様!」。剧中に登场するヴィジュアル系高校生バンド「U×ミシ」(読み:ユメミシ)の仮想ライブアルバムを発売!くぅが(cv:野岛健児)が歌う4曲+ドラマパートを収録!

月刊「LaLa」(白泉社)にて好评连载中!TBS、MBS、CBC、BS-TBSにて4月より放送中の「会长はメイド様!」。TV放送第10话で登场し、原作ファンにも人気。ヴィジュアル系高校生バンド「U×ミシ」(読み:ユメミシ)の仮想ライブアルバムが発売决定!くぅが(cv:野岛健児)と、アニメでもお驯染みの某アーティストがサウンドプロデュースとして参加することにより、クオリティの高いサウンドを実现!第10话の剧中挿入歌「ナツコイ☆物语」に新曲3曲を加え、またライブの観客として登场する美咲・さくら・碓氷・くぅがのドラマパートも収録した、ファン必须の1枚!
〈収録予定〉
M1:ナツコイ☆物语(第10话剧中挿入歌) M2:美咲、碓氷、さくら、くぅがのドラマパート1 M3:新曲A
M4:美咲、碓氷、さくら、くぅがのドラマパート2 M5:新曲B
M6:美咲、碓氷、さくら、くぅがのドラマパート3 M7:新曲C
〈放送情报〉TBSにて毎週木曜日深夜1时55分~、MBSにて毎週土曜日深夜2时58分~、CBCにて毎週水曜日深夜2时30分~、BS-TBSにて毎週土曜日深夜1时~絶賛放送中!

【アーティスト&キャスト】

ボーカル:くぅが(cv野岛健児)
ドラマパート出演:鮎沢美咲(cv藤村 歩)、碓氷拓海(cv冈本信彦)、花园さくら(cv花泽香菜)

【收录曲目】

1. Prologue(野岛健児、藤村歩、花泽香菜、冈本信彦)
2. ナツコイ☆物语(U×ミシ)
3. MC(野岛健児、藤村歩、花泽香菜、冈本信彦)
4. ガール(U×ミシ)
5. MC(野岛健児、藤村歩、花泽香菜、冈本信彦)
6. ユメノハナ(U×ミシ)
7. MC(野岛健児、藤村歩、花泽香菜、冈本信彦)
8. 茜(U×ミシ)
9. Epilogue(野岛健児、藤村歩、花泽香菜、冈本信彦)

【EAC.log】

代码
Exact Audio Copy V0.99 prebeta 5 from 4. May 2009

EAC 取り込みログファイル 日付 : 26. 9月 2010, 18:33

- / U×ミシ -ナツコイ☆物语-

使用ドライブ   : PIONEER BD-RW   BDR-205   Adapter: 3  ID: 0

読み込みモード                       : セキュアモード
ドライブが正确なデータ転送能力を持つ : はい
オーディオキャッシュを使用できる     : いいえ
C2エラー情报を検出する               : いいえ

読み込みサンプルオフセット订正値             : 637
リードイン・リードアウトをオーバーリードする : はい
欠落したオフセットサンプルを无音で补完する   : はい
曲の先头と末端の无音领域を削除する           : いいえ
CRC计算で无音のサンプルを使用するか          : はい
使用インターフェース                         : Win NT & 2000用のクラスドライバ

使用出力モード       : 内蔵WAV出力ルーチン
サンプルフォーマット : 44.100 Hz; 16 Bit; ステレオ


TOC情报を抜き出します

     トラック | スタート |   长さ   | 始めのセクター | 最终セクター
    ----------------------------------------------------------------
         1    |  0:00.00 |  2:05.27 |          0     |      9401    
         2    |  2:05.27 |  3:31.74 |       9402     |     25300    
         3    |  5:37.26 |  1:50.26 |      25301     |     33576    
         4    |  7:27.52 |  3:35.51 |      33577     |     49752    
         5    | 11:03.28 |  1:06.50 |      49753     |     54752    
         6    | 12:10.03 |  3:55.35 |      54753     |     72412    
         7    | 16:05.38 |  2:12.72 |      72413     |     82384    
         8    | 18:18.35 |  4:36.12 |      82385     |    103096    
         9    | 22:54.47 |  3:56.70 |     103097     |    120866    


范囲取り込みステータス & エラー

选択された范囲

     ファイル名 L:EAC会长はメイド様!_Virtual Live Album U×ミシ -ナツコイ☆物语-/くぅが starring 野岛健児 (tak)U×ミシ -ナツコイ☆物语-.wav

     ピークレベル 100.0 %
     范囲取り込み品质 100.0 %
     コピーCRC 29A70F22
     コピー OK

エラーは発生しませんでした

ステータス报告完了


【压缩包内文件列表】

IPB Image

IPB Image

正在读取……

这里是其它用户补充的资源(我也要补充):

暂无补充资源
正在加载,请稍等...

点击查看所有20网友评论

 

(?) [公告]留口水、评论相关规则 | [活动]每日签到 轻松领取电驴经验

    小贴士:
  1. 类似“顶”、“沙发”之类没有营养的文字,对勤劳贡献的楼主来说是令人沮丧的反馈信息。
  2. 提问之前请再仔细看一遍楼主的说明,或许是您遗漏了。
  3. 勿催片。请相信驴友们对分享是富有激情的,如果确有更新版本,您一定能搜索到。
  4. 请勿到处挖坑绊人、招贴广告。既占空间让人厌烦,又没人会搭理,于人于己都无利。
  5. 如果您发现自己的评论不见了,请参考以上4条。