v

您的位置:VeryCD教育外语


《走遍美国》(Family Album U.S.A)13CD转APE[压缩包]

  • 状态: 精华资源
  • 摘要:
    发行日期2002年
    对白语言英语
  • 时间: 2010/10/12 02:26:56 发布 | 2011/05/03 22:54:22 更新
  • 分类: 教育  外语 

flyingeagle1123

精华资源: 40

全部资源: 41

相关: 分享到新浪微博   转播到腾讯微博   分享到开心网   分享到人人   分享到QQ空间   订阅本资源RSS更新   美味书签  subtitle
该内容尚未提供权利证明,无法提供下载。
中文名走遍美国
英文名Family Album U.S.A
资源格式压缩包
版本13CD转APE
发行日期2002年
地区大陆
对白语言英语
简介

IPB Image


发布说明:

1.该资源仅供流量测试之用,请勿用于商业用途。如果喜欢,敬请购买湖北教育出版社的正版。因用于商业用途而带来的法律后果,一概由违反者自行承担。

2.该APE由原版CD制作而来——不是采集VCD音频。共13CD,估计4G上下。播放器请使用强大、自由、免费、无广告、无流氓插件的——Foobar2000。

3.这个版本的音质是所有版本中最好的,网上流传的一些版本,有令人很难受削波现象。
如果您的耳朵特别敏感,请勿下载。由于当时的年代局限,音质肯定无法同现代高清比较。
如果您的耳朵特别迟钝,请勿下载。对您而言,网上流传的8kbs版更适合您对小容量的要求。

4.将所有文件名中的“[走遍美国].”删除,cue就可以正确关联文件里。
或者用记事本打开cue文件,将里面“文件名.wav"修改和目前文件名一致即可。
原因是原文件是英文名,发布后系统自动加上中文名了,造成两者不匹配。


内容简介:

《走遍美国》(Family Album U.S.A.)是一套在国内畅销数百万册、在全球35个国家同步使用的生活化美语教材。它由美国新闻总署赞助,美国麦克米伦公司制作。该教材所采用的“电视影集”式的组织形式,是在向全球105个国家的英语教学者广泛咨询后才决定的,所有被调查者都认为电视剧情节感人,能吸引学习者的兴趣。《走遍美国》电视影集代表了国际最高制作水平,它的编剧兼导演William Greeves,以及动画制作群Dovetail Group都曾几度荣获美国电视界最高荣誉的艾美奖,所有演员都是优秀的专业演员,他们美语发音清晰、体态语言丰富,其效果远远超出了一般所谓的“情景会话”教材。

新世纪版《走遍美国》系列是由湖北点开新媒体传播有限公司重金引进,全新生活化的美语教材,她以电视剧集的形式介绍了美国一个三代同堂的家庭生活趣事。 该《走遍美国》为CD格式,不附带文字部分。音质清晰无损,会话鲜活生动,是辅助英语学习,联系英语口语,听力的好帮手!

引用
北京外国语大学胡文仲教授为本教材作序:

《走遍美国》是继《跟我学》之后影响最大的一个英语教学节目。我有幸在中央电视台播放该节目之前就看到原片。可以毫不夸张地说,这是一批富有英语教学经验的专家的精心之作。节目着重交际实用,语言项目循序渐进,内容生动有趣,演员的表演也十分精彩。之后看到教材,翻阅了课文和练习,更使我深信这是一套质量上乘的英语教材。最近我看到《走遍美国》(新版),仔细研究了书中提供的各种练习,又有一些新的感受。我认为这套教材不仅可供英语自学者使用,也完全可以用作在校学生的基础英语教材或口语教材。

初学英语的人往往有一种误解,认为只要把课文背熟,就学会了英语。以为学英语似乎和吟诗一样,“熟读唐诗三百首,不会吟诗也会吟。”因此他们花很多时间去背诵课文,而不在交际活动方面花精力。这种学习方法是否与私塾中语文的传统教法有关,我没有研究过,但是我根据自己四十年来英语教学的经验可以告诉大家,只是背诵课文是学不好英语的。我在以前发表的一篇文章中曾经说过,要把课文学活,就要学会“拆卸”和“组装”,要学会把课文中的生词、短语、句型从课文中分离出来,还要学会活用单个的生词、短语和句型,用它们表达新的意思,只背熟课文而不会拆卸和组装,不可能真正学会用英语交际。《走遍美国》(新版)中提供的大量练习和活动方式就是帮助学生学会拆卸和组装,学会把课文中的语言在新的情况下使用,学会用英语交际。为了引起学习者的兴趣,书中的练习方式新颖多变,练习紧扣录像,有的先听后做,有的先看后做;有的是填空,有的是回答,有的是讨论。从活动方式来看,有的是个人单独做,有的是两个人做,有的是小组或全班做。从内容来看,包括词汇、语法、语音、功能项目和课文等。练习既可以在教师的指导下进行(这是最理想的),也可以自己做。经过这些拆卸和组装的工作,学生最终达到把课文的语言学活,从而获得语言交际能力。

我曾经一再强调学习英语无捷径,不论什么人,要想学好英语唯一的办法是下苦功夫大量实践,也就是要多听,多读,多说,多写。广告上说什么“英语一月通”完全是为了推销商品,不可轻信。我很高兴《走遍美国》(新版)没有做这样不切实际的许诺。它强调的是结合录像做大量的交际性的练习和活动,通过这些活动使学生获得听说读写的能力。

我推荐《走遍美国》(新版)的主要原因是因为我认为这部教材能够帮助学习者把英语真正学会学好。

引用
骡友“十年十倍”的评论:

自己当初为了电视原声(94,95年时,书店的磁带录得还不是原声,是让几个老外按着课文脚本重新朗读的),只能每天守在电视机旁,一课一课的用录音机录下来,前后花了大半年时间才录完。为了在录制期间尽可能的减少杂音,拉上窗帘,关严实门,还不让家里人在房间内走动。可惜外录的声音还是有点糊,但有个好处-——就是习惯了有背景噪音的英语。

现在的学习者太幸福了,有这样高清晰地素材提供,而且可以那么容易的取得!但也有坏处—— 一些人对于稍有背景噪音的英语就没辙了!也正因为来的太容易,大多数人无法重头到尾的学完一套教材,更别说真正学进去了!而是整日跟着一些宣传广告走,试图找到一条捷径!而事实是只要学透走遍美国,就基本上能在日常生活学习中与人沟通了,不用再去另求他法了!

殊不知,任何学习只要遵循这两句古训,就一定能走出一条康庄大道来:
书山有路勤为径,学海无涯“趣”作舟。
知之者不如好之者,好知者不如乐之者。

再次感谢LZ使我重温了这些熟悉的声音,唤起了那段回忆!

材料截图:

http://images.joyo.com/b/ban_lwk_071220_waed7111503.jpg

技术参数:

引用
Exact Audio Copy V0.99 prebeta 5 from 4. May 2009

EAC extraction logfile from 11. October 2010, 22:52

Unknown Artist / Unknown Title

Used drive : TSSTcorpCDDVDW TS-L633B Adapter: 1 ID: 1

Read mode : Secure
Utilize accurate stream : Yes
Defeat audio cache : No
Make use of C2 pointers : Yes

Read offset correction : 36
Overread into Lead-In and Lead-Out : No
Fill up missing offset samples with silence : Yes
Delete leading and trailing silent blocks : No
Null samples used in CRC calculations : Yes
Used interface : Installed external ASPI interface

Used output format : Monkey's Audio Lossless Encoder v3.99 DLL
Sample format : Fast Lossless Compression


TOC of the extracted CD

Track | Start | Length | Start sector | End sector
---------------------------------------------------------
1 | 0:00.00 | 8:12.01 | 0 | 36900
2 | 8:12.01 | 6:13.45 | 36901 | 64920
3 | 14:25.46 | 9:12.05 | 64921 | 106325
4 | 23:37.51 | 8:02.33 | 106326 | 142508
5 | 31:40.09 | 6:57.30 | 142509 | 173813
6 | 38:37.39 | 8:36.21 | 173814 | 212534


Range status and errors

Selected range

Filename C:UsersFlyingeagleDocuments走遍美国01-02.ape

Peak level 92.9 %
Range quality 100.0 %
Copy CRC E73792F4
Copy OK

No errors occurred

End of status report



目录

EPISODE 1 46 Linden Street 林登大街46号
EPISODE 2 The Blind Date 介绍会面
EPISODE 3 Grandpa's Trunk 祖父的行李箱
EPISODE 4 A Piece of Cake 没问题
EPISODE 5 The Right Magic 钓鱼秘决
EPISODE 6 Thanksgiving 感恩节
EPISODE 7 Men's Best Friend 人类最好的朋友
EPISODE 8 You're Going to Be Fine 早日康复
EPSIODE 9 It's Up to You 选校风云
EPISODE 10 Smell the Flowers 偷得浮生半日闲
EPISODE 11 A Place of Our Own 自己的房子
EPISODE 12 You're Tops 顶尖高手
EPISODE 13 A Real Stewart 一个真正的斯图尔特家的后代
EPISODE 14 Playing Games 做游戏
EPISODE 15 Second Honeymoon 二度蜜月
EPISODE 16 Full of Surprises 意外的惊喜
EPISODE 17 Photo Finish 大功告成
EPISODE 18 Making a Difference 当仁不让
EPISODE 19 I Do 我愿意
EPISODE 20 Quality Time 黄金时代
EPISODE 21 A Big Fish in a Little Pond 小池塘里的大鱼
EPISODE 22 Career Choices 职业选择
EPISODE 23 The Community Center 社区中心
EPISODE 24 Parting Friends 饯行聚会
EPISODE 25 Country Music 乡间之音
EPISODE 26 Opening Night 展览开幕之夜

正在读取……

这里是其它用户补充的资源(我也要补充):

暂无补充资源
正在加载,请稍等...

点击查看所有128网友评论

 

(?) [公告]留口水、评论相关规则 | [活动]每日签到 轻松领取电驴经验

    小贴士:
  1. 类似“顶”、“沙发”之类没有营养的文字,对勤劳贡献的楼主来说是令人沮丧的反馈信息。
  2. 提问之前请再仔细看一遍楼主的说明,或许是您遗漏了。
  3. 勿催片。请相信驴友们对分享是富有激情的,如果确有更新版本,您一定能搜索到。
  4. 请勿到处挖坑绊人、招贴广告。既占空间让人厌烦,又没人会搭理,于人于己都无利。
  5. 如果您发现自己的评论不见了,请参考以上4条。