v

您的位置:VeryCD动漫剧场动画

动漫资源事务区


《超时空要塞F剧场版-虚空歌姬》(Macross Frontier -Itsuwari no Utahime)[内嵌字幕][MP4-480P][BDRip]

  • 状态: 精华资源
  • 摘要:
    发行时间2009年11月21日
    语言日语
  • 时间: 2010/10/09 23:49:32 发布 | 2010/10/17 03:23:56 更新
  • 分类: 动漫  剧场动画 

神奎托斯

精华资源: 40

全部资源: 46

相关: 分享到新浪微博   转播到腾讯微博   分享到开心网   分享到人人   分享到QQ空间   订阅本资源RSS更新   美味书签  subtitle
该内容尚未提供权利证明,无法提供下载。
中文名超时空要塞F剧场版-虚空歌姬
英文名Macross Frontier -Itsuwari no Utahime
别名マクロスF 虚空歌姫~イツワリノウタヒメ~
资源格式BDRip
版本[内嵌字幕][MP4-480P]
发行时间2009年11月21日
地区日本
语言日语
简介

IPB Image

引用
神奎托斯编辑上传,其他资源请点我: http://home.VeryCD.com/?6298050

到此,《虚空歌姬》的各个版本都已发全
MP4-480P: http://www.VeryCD.com/topics/2857304/
MP4-720P: http://www.VeryCD.com/topics/2858115/
MP4-1080P: http://www.VeryCD.com/topics/2856950/
MKV-1080P: http://www.VeryCD.com/topics/2858907/

应大家要求,BD-MP4-480P内嵌字幕版本出炉了

【首播时间】2009年11月21日
【BD发售日】2010年10月7日
【字幕制作】内嵌字幕

【动画介绍】
2008年4月到9月期间在MBS、TBS等日本全国共十个电视台放送的TV动画《MACROSS F》是自1982年起开始播出的《超时空要塞MACROSS》的最新系列。在以往所有系列中,“MACROSS”坚定不移的贯彻着“歌曲”、“三角关系”、“可变形机体”这三个关键词,将这些要素融入迷样的故事结构中,加上精美的CG战斗场面和魅力无穷的歌姬,使得“MACROSS”系列在最大范围内获得了观众的支持率,站在了SF动画金字塔的顶端。

  而本次问世的《MACROSS 虚空歌姬》正是由去年“MACROSS”系列最新作《Macross Frontier》重新架构组成的剧场动画。新作加入了大量的新鲜画面,预计共制作上下两部,观众完全可以把它当作是一部全新的动画来观看。   2009年,聚集了最多人气的TV动画《MACROSS F》剧场版《MACROSS 虚空歌姬》,就要在金秋隆重登场了!史上最高的天空银河战记即将拉开帷幕。

【剧情介绍】
西历2059年,计划寻找新天地的银河移民船团“macross frontier”上,一名以驾驶员为目标而努力的少年早乙女阿尔特感受到了前所未有的闭塞感。这个时候,位于银河顶端的歌姬雪莉露·诺姆来到船团举行巡回演唱会,阿尔特以及憧憬着雪莉露的少女兰花·李当天都来到了会场。然而演唱会当中,却突然遭到重机架生命体的袭击。为了保护少女们,阿尔特登上了最新型可变战斗机VF-25。在战火烽烟的尽头,传说中可以震撼宇宙的“歌”以及纠缠着少女们的“迷”究竟是什么……?

【STAFF】
原作:河森正治(Studio Nue)

总监督:河森正治

监督:菊地康仁

脚本:吉野弘幸、河森正治

人物设定:江端里沙、高桥裕一

机体设定:石垣纯哉、高仓武史

兵器设定:河森正治

机体美工:天神英贵

CG担当:八木下浩史

色彩设计:中山久美子

美术监督:吉原俊一郎(美峰)

音乐:菅野洋子

音乐监督:三间雅文

动画制作:SATELIGHT

【CAST】
早乙女阿尔特:中村悠一

雪莉露·诺姆:远藤绫

兰卡·李:中岛爱

奥兹马·李:小西克幸

米歇尔·布朗:神谷浩史

卢卡·安杰洛:福山润

葛兰葛兰:丰口惠美

布雷拉·斯特恩:保志总一朗

鲍比·马尔格:三宅健太

凯瑟琳·格拉斯:小林沙苗

格蕾丝·奥康纳:井上喜久子

里昂·三岛:杉田智和

【官方网站】
http://www.macrossf.com/

【文件信息】
代码
      Format : MPEG-4
      Format profile : Base Media
      Codec ID : isom
      File size : 999 MiB
      Duration : 1h 59mn
      Overall bit rate : 1 169 Kbps
      Encoded date : UTC 2010-10-08 08:17:59
      Tagged date : UTC 2010-10-08 08:17:59
      Writing application : Lite MP4 Tool v2.2
   Video #1
      ID : 1
      Format : AVC
      Format/Info : Advanced Video Codec
      Format profile : Main@L3.0
      Format settings, CABAC : Yes
      Format settings, ReFrames : 3 frames
      Codec ID : avc1
      Codec ID/Info : Advanced Video Coding
      Duration : 1h 59mn
      Bit rate mode : Variable
      Bit rate : 1 070 Kbps
      Maximum bit rate : 10.7 Mbps
      Width : 720 pixels
      Height : 480 pixels
      Display aspect ratio : 16:9
      Original display aspect ratio : 16:9
      Frame rate mode : Constant
      Frame rate : 23.976 fps
      Standard : NTSC
      Resolution : 24 bits
      Colorimetry : 4:2:0
      Scan type : Progressive
      Bits/(Pixel*Frame) : 0.129
      Stream size : 914 MiB (92%)
      Title : Imported with GPAC 0.4.6-DEV (build 1)
      Writing library : x264 core 80 r1376 3feaec2
      Encoding settings : cabac=1 / ref=3 / deblock=1:0:0 / analyse=0x1:0x111 / me=umh / subme=7 / psy=1 / psy_rd=1.0:0.0 / mixed_ref=1 / me_range=16 / chroma_me=1 / trellis=1 / 8x8dct=0 / cqm=0 / deadzone=21,11 / fast_pskip=1 / chroma_qp_offset=-2 / threads=4 / sliced_threads=0 / nr=0 / decimate=1 / mbaff=0 / constrained_intra=0 / bframes=3 / b_pyramid=0 / b_adapt=1 / b_bias=0 / direct=3 / wpredb=1 / wpredp=2 / keyint=250 / keyint_min=25 / scenecut=40 / rc_lookahead=40 / rc=2pass / mbtree=1 / bitrate=1070 / ratetol=1.0 / qcomp=0.60 / qpmin=10 / qpmax=51 / qpstep=4 / cplxblur=20.0 / qblur=0.5 / ip_ratio=1.40 / aq=1:1.00
      Encoded date : UTC 2010-10-08 08:17:59
      Tagged date : UTC 2010-10-08 08:18:44
   Audio #2
      ID : 2
      Format : AAC
      Format/Info : Advanced Audio Codec
      Format version : Version 4
      Format profile : LC
      Format settings, SBR : No
      Codec ID : 40
      Duration : 1h 59mn
      Bit rate mode : Variable
      Bit rate : 96.0 Kbps
      Maximum bit rate : 112 Kbps
      Channel(s) : 2 channels
      Channel positions : L R
      Sampling rate : 48.0 KHz
      Resolution : 16 bits
      Stream size : 82.0 MiB (8%)
      Encoded date : UTC 2010-10-08 08:18:38
      Tagged date : UTC 2010-10-08 08:18:44


【截图欣赏】
IPB Image

IPB Image

IPB Image

IPB Image

正在读取……

这里是其它用户补充的资源(我也要补充):

暂无补充资源
正在加载,请稍等...

点击查看所有79网友评论

 

(?) [公告]留口水、评论相关规则 | [活动]每日签到 轻松领取电驴经验

    小贴士:
  1. 类似“顶”、“沙发”之类没有营养的文字,对勤劳贡献的楼主来说是令人沮丧的反馈信息。
  2. 提问之前请再仔细看一遍楼主的说明,或许是您遗漏了。
  3. 勿催片。请相信驴友们对分享是富有激情的,如果确有更新版本,您一定能搜索到。
  4. 请勿到处挖坑绊人、招贴广告。既占空间让人厌烦,又没人会搭理,于人于己都无利。
  5. 如果您发现自己的评论不见了,请参考以上4条。