v

您的位置:VeryCD综艺纪录片

综艺资源事务区


《历史频道:解密逃脱大师哈里·胡迪尼》(History Channel: Houdini: Unlocking the Mystery )[PDTV]

  • 状态: 精华资源
  • 摘要:
    发行时间2005年
    地区美国
    语言英语
  • 时间: 2010/10/07 12:23:45 发布 | 2010/10/07 14:07:03 更新
  • 分类: 综艺  纪录片 

life_is_good

精华资源: 6571

全部资源: 7301

相关: 分享到新浪微博   转播到腾讯微博   分享到开心网   分享到人人   分享到QQ空间   订阅本资源RSS更新   美味书签  subtitle
该内容尚未提供权利证明,无法提供下载。
中文名历史频道:解密逃脱大师哈里·胡迪尼
英文名History Channel: Houdini: Unlocking the Mystery
版本[PDTV]
发行时间2005年
制作发行History Channel
地区美国
语言英语
简介

IPB Image
【类型】: 纪录
【影片长度】: 90分钟
【集数】:全1集
【字幕】: 暂无
【服务器】: 随机
【分享时间】:全天

【内容介绍】:

哈利·胡迪尼Harry Houdini

今天才知道美国有名的魔术大师胡迪尼是住过appleton,难过旅馆里有掛他的照片,我问旅馆人员是因为胡迪尼住过这边吗?一问之下才知道原来他是算当地人住在appleton机场旁,房子还保留著,也算增长见闻了。

维基百科,自由的百科全书

哈利·胡迪尼(Harry Houdini,1874年3月24日 -1926年10月31日 ),本名艾瑞其·怀兹(Ehrich Weiss)(出生时名字的匈牙利土语拼法为怀什·埃里克(Weisz Erik))。 被称为史上最伟大魔术师、脱逃术师及特技表演者。

早期生涯

胡迪尼於1874年3月24日 出生在匈牙利的布达佩斯,具犹太背景。1878年随著家人移民美国。起初他们居住在威斯康辛州的阿普里顿(Appleton),他的父亲,梅尔·山谬·怀兹(Mayer Samuel Weiss)於当地的犹太教团(Zion Reform Jewish Congregation)担任祭司。1887年失去该职位之后,父子两人先搬到纽约暂住於东79街的一所接待家庭里,直到找到了更适合永久居住的地方,才接其他家人过来同住。

取名「哈利」是因为和他的小名Ehrie发音声调相似。

职业生涯

胡迪尼在电影The man from beyond中於河里游泳的镜头1891年, 他正式成为一个专业的魔术师并开始自称为哈利·胡迪尼。胡迪尼(Houdini)的原由则是为了向一位法国魔术师让·欧仁·罗贝尔—乌当(Jean Eugene Robert-Houdin)表达致敬的意思。(直到1913年胡迪尼才成为他法定的名字)。起初他的魔术师生涯并不算成功,不过在1893年他结识了同行的Wilhelmina Beatrice(Bess)并且经过三个星期的热烈追求之后,两人便步入礼堂。之后的表演生涯当中,Bess都会担任他的表演助理。

胡迪尼起初都是表演一些和扑克牌有关係的戏法,甚至曾自称「扑克牌之王」。他最著名的,但不是和脱逃术有关係的戏法是:他曾经在伦敦的赛马场让一头成年巨象从一座游泳池上方的舞台消失。

他不久之后开始尝试脱逃术的表演。1899年当哈利·胡迪尼遇到了马戏团老闆马丁·贝克时,才终於在事业上有了「重大突破」。马丁对胡迪尼表演的手銬戏法大为讚赏,於是建议他继续专注於脱逃术的表演并且安排他在奥芬(Orpheum)杂耍剧院巡迴表演。几个月里,他不断出现在许多国内顶级杂耍剧院的舞台上。1900年,胡迪尼更巡迴欧洲各地表演。直在1904年返国时,他已成为家喻户晓的人物。

整个1900年代和1910年代,胡迪尼在美国的表演经常都是非常成功的。他将自己从手銬、铁鍊、绳索和约束衣中解脱出来,而且通常在被绳索吊著或困在水中时表演,有时也会在眾目睽睽之下直接表演。1913年他推出了堪称他最著名的戏法「中国水牢(Chinese Water Torture Cell)。他会被倒吊在一座由玻璃和钢铁制成的密闭箱子里,而且箱子中的水不停的被灌满直到溢出为止。

在1920年代所出版的书里,他曾解释了一些他戏法的奥秘。大部分的锁或手銬利用巧劲都可以轻易解开,某些则需要利用鞋带的辅助。另外还有些时候,他会偷偷夹带著解锁的工具或者钥匙,把小钥匙反芻出来对他来说是轻而易举的事。他能从一个看似牢固的牛奶罐里脱逃出则完全是因为从罐子里面可以轻易的把颈部和罐身分离开来。当被绳索或约束衣紧紧綑绑住的时候,为了争取扭动的空间,他先扩张肩膀和胸部,并把手臂向外撑开,然后让他的肩膀脱臼。原本他都隐藏在帘幕后方表演约束衣脱逃术,然后只有在脱困的时候才现身,但胡迪尼发现观眾更能享受他在帘幕前表演时的整个挣脱过程。在许多场合里,他甚至会把自己倒吊在屋顶上来表演约束衣脱逃术,以增加悬疑效果。

胡迪尼的整套戏法,包括脱逃术,虽然都是相当困难的,但也曾被安排在不同的巡迴表演中,由他的兄弟,席奥·怀兹(Theo Weiss)(怀兹家族的「破折号」),利用「哈顿」(Hardeen)这个艺名所演出。而两者主要的不同点在於约束衣脱逃术:胡迪尼能够让两个肩膀都脱臼,但是哈顿则只能让一个肩膀脱臼。

灵媒揭穿

1920年代,在他挚爱的母亲过世之后,他将精力转移到揭穿自称能通灵的灵媒身上,后来这样的行为甚至啟发并被之后的魔术师如詹姆士·兰提(James Randi)和索卡(P.C. Sorcar)所追随。胡迪尼的专业训练让他能够揭发连科学家和学者都无法识破的诈术。他是科学美国人(Scientific American)委员会的成员,该会提供现金大奖给能够成功展示超自然能力的灵媒。也多亏胡迪尼的贡献,那个奖从没有被领走过。当他的「魔鬼剋星」名声日隆,胡迪尼还会在记者和警察的陪伴下,乔装混入降灵会现场。他揭发的灵媒当中最出名的也许要算是一位波士顿的灵媒「米那·克兰顿(Mina Crandon)」又名「玛乔芮(Margery)」。

这些举动让胡迪尼丧失了「柯南·道尔」也就是「福尔摩斯」侦探小说创作者的友谊。道尔是一位对灵性主义深信不疑的人,他拒绝相信任何一个胡迪尼所揭发的事件。他甚至相信胡迪尼本身就是一位力量强大的灵媒,所以许多特技也都是因此才能达成,而「揭穿」不过是他使用这样的能力来阻挡灵媒而已。(参考道尔於1931年,也就是胡迪尼过世后所出版的The Edge of The Unknown)。这样的争论使得两人成为公开的对立者。

去世

胡迪尼於1926年10月31日 万圣节前夕死於因盲肠破裂而引起的腹膜炎,享年52岁。在两个星期以前,胡迪尼曾经接受了一位来自麦基尔大学的拳击学生J. Gordon Whitehead针对下腹部的打击。长久以来胡迪尼的表演之一便是邀请一位观眾上台打击他的下腹部,但是在那一次的表演当中,他在没有充分的準备之下被打了好几拳,而且之后还必须躺在沙发上。大多数的人认为是盲肠炎导致了他的死亡而非下腹部的打击。不过因为打击所带来的疼痛确实有可能遮蔽了盲肠炎的疼痛,进而导致延迟就医。

胡迪尼的丧礼在同年的11月4日 於纽约举行,到场参与的哀悼者超过了两千位。他被埋葬在纽约皇后区的Machpelah墓园,墓碑上雕刻了「美国魔术师协会」的荣誉徽章。该协会直到今日都还会在他的忌日到他的墓地举办「破裂的魔术棒」(Broken Wand)仪式。

事隔81年(2007年)胡迪尼的姪孙哈汀希望挖出他的遗体,由一批顶尖的刑事调查专家验尸,以确定他是否因拆穿一些所谓通灵人的谎言而遭到忌恨,被人家下毒害死。当时并未进行验尸,而1926年11月20日发出死亡证明时,胡迪尼的遗体已经由火车从底特律运到纽约曼哈顿的中央车站,并安葬在皇后区,此事可能涉及任何阴谋的证据也随之埋进土里。几天后,一家报纸刊出标题为「胡迪尼是否受到谋害?」的报导。新出版的传记「胡迪尼的祕密生活」再度提出这个问题,使哈汀和其他人相信胡迪尼确有可能被毒死。胡迪尼如果确实遭到杀害,嫌疑最大的可能是一批所谓的通灵人,因为他生前最后几年,一直在舞台表演努力揭穿他们的降神骗术。福尔摩斯作者柯南道尔也崇信通灵,而胡迪尼的传记中提到柯南道尔1924年11月写了一封信,宣称胡迪尼「将罪有应得,很快就会遭到报应」。两年后,胡迪尼在53岁生日前去世。传记中指出,通灵界在这方面的手法通常是下毒,而且可能是用砒霜。

身后遗物

胡迪尼纪念邮票胡迪尼在死后还留给了他痛恨的灵媒们最后一击。在临死前,他和他的老婆贝丝·胡迪尼约定死后如果可能的话,会从另一个世界和她联繫并且传达一则先前沟通过的密语,以示证明。接下来的十年当中,每年万圣节前夕,贝丝都会举行一个降灵会来测试这个约定。1936年在最后一次不成功的降灵会之后,她熄灭了胡迪尼相片旁的一盏从死后一直保持燃烧的蜡烛。之后(1943年)她说:「十年的等待对任何男人来说都够久了」。

联邦邮局曾在2002年7月3日 发行一套邮票,该邮票复制了胡迪尼最喜爱的宣传海报。

哈利·胡迪尼在好莱坞最著名的星光步道上拥有一个星型石碑。他出演过五部默片,并且担任其中几部的编剧。

1953年一部由汤尼·寇帝斯(Tony Curtis)所主演的电影将胡迪尼生涯彻底的小说化。许多关於胡迪尼的误解大部分都是来自於这部电影。譬如说,电影中描述胡迪尼是死於表演「中国水牢」,而非平凡无奇的腹膜炎。

代码
    Complete name : History.Channel.Houdini.Unlocking.the.Mystery.PDTV.XviD.avi
    Format : AVI
    Format/Info : Audio Video Interleave
    File size : 700 MiB
    Duration : 1h 30mn
    Overall bit rate : 1 079 Kbps
    Writing application : VirtualDubMod 1.5.10.2 (build 2540/release)
    Writing library : VirtualDubMod build 2540/release

    Video
    ID : 0
    Format : MPEG-4 Visual
    Format profile : Advanced Simple@L5
    Format settings, BVOP : Yes
    Format settings, QPel : No
    Format settings, GMC : No warppoints
    Format settings, Matrix : Default (H.263)
    Muxing mode : Packed bitstream
    Codec ID : XVID
    Codec ID/Hint : XviD
    Duration : 1h 30mn
    Bit rate : 957 Kbps
    Width : 640 pixels
    Height : 352 pixels
    Display aspect ratio : 16:9
    Frame rate : 25.000 fps
    Resolution : 8 bits
    Colorimetry : 4:2:0
    Scan type : Progressive
    Bits/(Pixel*Frame) : 0.170
    Stream size : 621 MiB (89%)
    Writing library : XviD 1.1.2 (UTC 2006-11-01)

    Audio
    ID : 1
    Format : MPEG Audio
    Format version : Version 1
    Format profile : Layer 3
    Mode : Joint stereo
    Format_Settings_ModeExtension : MS Stereo
    Codec ID : 55
    Codec ID/Hint : MP3
    Duration : 1h 30mn
    Bit rate mode : Variable
    Bit rate : 109 Kbps
    Nominal bit rate : 128 Kbps
    Channel(s) : 2 channels
    Sampling rate : 48.0 KHz
    Stream size : 71.0 MiB (10%)
    Alignment : Aligned on interleaves
    Interleave, duration : 24 ms (0.60 video frame)
    Interleave, preload duration : 495 ms
    Writing library : LAME3.90.
    Encoding settings : -m j -V 4 -q 2 -lowpass 17.6 --abr 128

正在读取……

这里是其它用户补充的资源(我也要补充):

暂无补充资源
正在加载,请稍等...

点击查看所有20网友评论

 

(?) [公告]留口水、评论相关规则 | [活动]每日签到 轻松领取电驴经验

    小贴士:
  1. 类似“顶”、“沙发”之类没有营养的文字,对勤劳贡献的楼主来说是令人沮丧的反馈信息。
  2. 提问之前请再仔细看一遍楼主的说明,或许是您遗漏了。
  3. 勿催片。请相信驴友们对分享是富有激情的,如果确有更新版本,您一定能搜索到。
  4. 请勿到处挖坑绊人、招贴广告。既占空间让人厌烦,又没人会搭理,于人于己都无利。
  5. 如果您发现自己的评论不见了,请参考以上4条。