v

您的位置:VeryCD综艺纪录片

综艺资源事务区


《历史频道:“崩塌”的美国》(History Channel: The Crumbling of America)[PDTV]

  • 状态: 精华资源
  • 摘要:
    发行时间2009年
    地区美国
    语言英语
  • 时间: 2010/10/06 21:39:53 发布 | 2010/10/07 11:36:39 更新
  • 分类: 综艺  纪录片 

life_is_good

精华资源: 6571

全部资源: 7301

相关: 分享到新浪微博   转播到腾讯微博   分享到开心网   分享到人人   分享到QQ空间   订阅本资源RSS更新   美味书签  subtitle
该内容尚未提供权利证明,无法提供下载。
中文名历史频道:“崩塌”的美国
英文名History Channel: The Crumbling of America
版本[PDTV]
发行时间2009年
制作发行History Channel
地区美国
语言英语
简介

IPB Image

【类型】: 纪录
【影片长度】: 90分钟
【集数】:全1集
【字幕】: 暂无
【服务器】: 随机
【分享时间】:全天

【内容介绍】:

美国全国目前有超过七万座桥被判定为结构缺陷;大面积电网故障时常发生;超过25000盈利的通航水域超过了它们的五十年设计寿命。美国正面临着严重的基础设施危机。(文:life_is_good@YDY)

Throughout world history, great civilizations have survived and extended their rule through dependence on great infrastructures. Rome had its roads and aqueducts. The Mayans had their pyramids and palaces. But what happens when society neglects its infrastructure? Right now, the U.S. infrastructure is collapsing and it impacts every single person in this country. In the first half of the 20th century, our bridges, highways, tunnels, dams, levees, ports, water and gas pipelines were built during the greatest age of construction the world had ever seen. But now these steel and concrete achievements are deteriorating. More than 70,000 of our nation's bridges are rated structurally deficient. Massive grid failures have left millions in the dark. 25,000 miles of commercial navigable waterways and locks have exceeded their 50-year design life. Everything from dilapidated levees to pipelines to railroads is past their expiration date.

代码
    Complete name : History.Channel.The.Crumbling.of.America.FS.PDTV.x264-PhatWarez.mkv
    Format : Matroska
    File size : 697 MiB
    Duration : 1h 30mn
    Overall bit rate : 1 077 Kbps
    Encoded date : UTC 2010-09-17 16:23:23
    Writing application : mkvmerge v4.0.0 ('The Stars were mine') built on Jun 6 2010 16:18:42
    Writing library : libebml v1.0.0 + libmatroska v1.0.0

    Video
    ID : 1
    Format : AVC
    Format/Info : Advanced Video Codec
    Format profile : High@L3.1
    Format settings, CABAC : Yes
    Format settings, ReFrames : 8 frames
    Muxing mode : Container profile=Unknown@3.1
    Codec ID : V_MPEG4/ISO/AVC
    Duration : 1h 30mn
    Bit rate : 947 Kbps
    Width : 720 pixels
    Height : 480 pixels
    Display aspect ratio : 4:3
    Original display aspect ratio : 4:3
    Frame rate : 29.970 fps
    Standard : NTSC
    Resolution : 8 bits
    Colorimetry : 4:2:0
    Scan type : Progressive
    Bits/(Pixel*Frame) : 0.091
    Stream size : 601 MiB (86%)
    Writing library : x264 core 98 r1649 c54c47d
    Encoding settings : cabac=1 / ref=8 / deblock=1:0:0 / analyse=0x3:0x133 / me=umh / subme=9 / psy=1 / psy_rd=1.00:0.00 / mixed_ref=1 / me_range=16 / chroma_me=1 / trellis=2 / 8x8dct=1 / cqm=0 / deadzone=21,11 / fast_pskip=1 / chroma_qp_offset=-2 / threads=3 / sliced_threads=0 / nr=0 / decimate=1 / interlaced=0 / constrained_intra=0 / bframes=3 / b_pyramid=2 / b_adapt=2 / b_bias=0 / direct=3 / weightb=1 / weightp=2 / keyint=250 / keyint_min=25 / scenecut=40 / intra_refresh=0 / rc_lookahead=60 / rc=2pass / mbtree=1 / bitrate=947 / ratetol=1.0 / qcomp=0.60 / qpmin=10 / qpmax=51 / qpstep=4 / cplxblur=20.0 / qblur=0.5 / ip_ratio=1.40 / aq=1:1.00

    Audio
    ID : 2
    Format : MPEG Audio
    Format version : Version 1
    Format profile : Layer 3
    Mode : Joint stereo
    Format_Settings_ModeExtension : MS Stereo
    Codec ID : A_MPEG/L3
    Codec ID/Hint : MP3
    Duration : 1h 30mn
    Bit rate mode : Variable
    Bit rate : 127 Kbps
    Minimum bit rate : 32.0 Kbps
    Channel(s) : 2 channels
    Sampling rate : 48.0 KHz
    Stream size : 82.2 MiB (12%)
    Writing library : LAME3.98r
    Encoding settings : -m j -V 3 -q 0 -lowpass 18 --vbr-new -b 32

正在读取……

这里是其它用户补充的资源(我也要补充):

暂无补充资源
正在加载,请稍等...

点击查看所有26网友评论

 

(?) [公告]留口水、评论相关规则 | [活动]每日签到 轻松领取电驴经验

    小贴士:
  1. 类似“顶”、“沙发”之类没有营养的文字,对勤劳贡献的楼主来说是令人沮丧的反馈信息。
  2. 提问之前请再仔细看一遍楼主的说明,或许是您遗漏了。
  3. 勿催片。请相信驴友们对分享是富有激情的,如果确有更新版本,您一定能搜索到。
  4. 请勿到处挖坑绊人、招贴广告。既占空间让人厌烦,又没人会搭理,于人于己都无利。
  5. 如果您发现自己的评论不见了,请参考以上4条。