v

您的位置:VeryCD综艺纪录片

综艺资源事务区


《历史频道:真实的加勒比海盗》(History International: True Carribean Pirates)[PDTV][TVRip]

  • 状态: 精华资源
  • 摘要:
    发行时间2006年
    地区美国
    语言英语
  • 时间: 2010/10/06 20:48:39 发布 | 2010/10/06 21:06:57 更新
  • 分类: 综艺  纪录片 

life_is_good

精华资源: 6571

全部资源: 7301

相关: 分享到新浪微博   转播到腾讯微博   分享到开心网   分享到人人   分享到QQ空间   订阅本资源RSS更新   美味书签  subtitle
该内容尚未提供权利证明,无法提供下载。
中文名历史频道:真实的加勒比海盗
英文名History International: True Carribean Pirates
资源格式TVRip
版本[PDTV]
发行时间2006年
制作发行History
地区美国
语言英语
简介

IPB Image

【类型】: 纪录
【影片长度】: 90分钟
【集数】:全1集
【字幕】: 暂无
【服务器】: 随机
【分享时间】:全天

【内容介绍】:

Blackbeard. Ann Bonny. Henry Jennings. Calico Jack. Henry Morgan. Black Bart Roberts. In the 17th and early 18th century, these famous brigands and countless others terrorized the Caribbean, targeting the parade of treasure and cargo bound for Europe.

Just two years after Columbus first set foot in the Bahamas, the Pope granted Spain exclusive right to the Caribbean and most of the New World. The Spanish reaped an immense fortune in gold and silver, but with a price. England, France, and Holland all established Caribbean bases and used privateers to protect their interests and steal Spanish treasure. The line between privateering and piracy became blurred. TRUE CARIBBEAN PIRATES examine this Golden Age of Piracy and the true stories of the infamous mariners, how they operated, and their successes and failures in this dark and deadly profession.

1492年哥伦布首次在巴哈马群岛登上美洲。由于当地的印第安人缺乏欧洲外来者所感兴趣的财富,欧洲人虽然在加勒比海群岛上殖民,但大多数人继续航行到美洲大陆上去了。既西班牙人和葡萄牙人之后,英国、法国、荷兰和丹麦都陆续在这里建立了殖民地。

16世纪加勒比海成为海盗的天堂。许多海盗甚至是由他们本国国王授权的,加勒比海上的众多小岛为他们提供了良好的躲藏地,而西班牙运送珠宝的舰队是他们的主要攻击对象。

加勒比海是大西洋西部南北美洲之间的一个海,它的北部和东部的边缘是一连串从墨西哥湾一直延伸到委内瑞拉的岛屿(西印度群岛),包括北部的古巴、海地、多米尼加、牙买加、波多黎各和东部的小安的列斯群岛。其南部是南美洲北部的几个国家,包括委内瑞拉、哥伦比亚、和巴拿马。其西部是中美洲的大西洋沿岸国家,包括哥斯达黎加、尼加拉瓜、洪都拉斯、危地马拉、伯利兹、及墨西哥的尤卡坦半岛。


ii

葡萄牙对美洲的殖民活动始于16世纪初。1500年,由卡布拉尔率领的远航队在赴印度途中遇风暴不期到达巴西。不久,葡萄牙人在此建立了面积广大的巴西殖民地。也就是从16世纪起,加勒比海成了海盗的天堂,许多海盗甚至是由他们本国国王授权的。加勒比海上的众多小岛为他们提供了良好的躲藏地,而西班牙运送珠宝的舰队是他们的主要攻击对象。

  新大陆的海盗,同他们的欧洲和非洲的海盗先辈一样,也常常把劫掠活动同商业贸易结合起来,起着商人和走私者的多重作用。加勒比海海域星罗棋布的岛屿成了美洲海盗活动的主要舞台,这里的许多岛屿的自然条件虽然不利于海运和开港,那些难以通航的僻静港湾却成了海盗和各种冒险分子绝好的避风港和窝点。

  加勒比海海盗活动另一方面同战争密切相关,即同欧洲殖民列强之间为争夺和瓜分新大陆而进行的战争有关,各个不同的海盗团伙都有不同程度的殖民地宗主国背景。

  在西欧列强激烈争夺瓜分新大陆的大背景下,从1530到1630年,加勒比海的海面上,就像一个连绵起伏的舞台,法国的、英国的、荷兰等国的海盗,在这100多年中--粉墨登场。

iii

一、海盗旗帜

  骷髅旗:海盗旗的基本图案为骷髅下插两根交叉的骨头,也有下插两根骨头的变种。在茫茫大海上,那威风八面的骷髅旗,那高高飘扬的血色旗帜令多少人闻之色变。有的海盗平时也采取遇到哪国的船只就挂哪国旗帜的狡诈之策,既可以假相麻痹对方,又可逃避别国兵舰的追捕


  二、海盗标志

  三、海盗之歌

  我们是海盗   凶猛的海盗 

  左手拿着酒瓶  右手捧着财宝

  我们是海盗   自由自在的海盗 

  在旗帜的指引下 为了生存而辛劳

  我们是海盗   没有明天的海盗 

  永远没有终点  在七大洋上飘荡……

  四、海盗守则

  这是英国海盗罗伯茨船长为他的船员们制定的守则:

  1.人人有平等的表决权。船长发出的命令,如果没有违背兄弟情谊的基本原则的话,都应当全力并自觉自愿地去执行。

  2.人人公平,在财产方面不得欺骗。船长应分得整个掳获物的15%,一名军官、一名木匠和一名武装水手合起来分12.5%。

  3.禁止赌博。在船上打架斗殴原则上属禁止之列。谁不听从船长的话,则处以裸背鞭打39下。

  4.船上的每一个成员如果想开小差,应当让其在无人的海岸边上岸,只给他一瓶水、一块鱼以及能够用来为自己获取食物的武器。

  5.如果在船上行窃或愚弄欺骗一个以上的伙伴都是有罪的,都应按现行规定予以惩处,情节严重者处以死刑。

  6.船上的任何一个成员都不得在大家不知道的情况下,与别的海盗团体达成协议或签订合同,违者以叛徒论。

  7.不许佩带不乾净的武器,每个人都要时常擦洗自己的枪和刀。凡损坏武器、在无棚遮盖处抽烟,或在无遮掩的情况下点燃照明火也都处以与上述同样的惩罚。

  五、海盗武器 匕首

  火枪

  短火枪

  霰弹枪

  手枪

  大炮:黑火药出现不久,大炮也应运而生。大铁球炮弹从空的一头填入炮管,推到底。而炮弹和底部之间,就是火药。大炮的末端有点火孔,可以用火柴来点燃火药。大炮可以发射圆球弹、葡萄弹和铁链弹。圆球弹是个大铁球,用来在船板上打洞十分有效;葡萄弹是好多小炮弹,用于撕裂敌船的帆,或是对甲板上的人员造成大面积杀伤;至于铁链弹,则是用长铁链连接的两颗大铁球,用以打断敌船的桅杆

  六、海盗的惩罚 在海盗船上,船长的律令就是法律。海盗的惩罚方式主要有以下几种:

  一、抛入海中,这是海盗最为古老的惩罚方式。

  二、放逐,是指将受惩罚者独自丢在荒岛上。

  三、猫之九尾,一种用九股涂过柏油的绳子制成的绳鞭。有的船长还在绳鞭的末梢装上鱼钩或是火枪的弹丸,并在受鞭笞者的背部涂上盐而使其更加疼痛难忍。

  四、浸水:是指将受到惩罚的人扔到水中,然后悬挂在主桅上,还有一种是将受到惩罚的人固定在船底的绳上,使其受到来自龙骨的摩擦,那些常年行驶在海上的海盗船,其船底毛刺与碎片对受罚者可谓万剑穿心。

  七、海盗的等级 船长:想成为海盗船长,需有视死如归的冒险精神、孤注一掷的赌徒心理和在生死关头临危不惧的胆略和勇气。船长有决定重大决策、处置手下船员和决定俘虏生死的权力。

  军需官:军需官在海盗船上的权力仅次于船长。

  领航员:其职责是在船上负责领航。

  炮手:其职责是在作战中负责大炮和火药。

  还有船员,各有分工。

  八、海盗的饮料

  其实,海盗是没有什么固定的饮料的。早在16~17世纪,人们还没有发明饮料,当时,在加勒比海上的海盗们一年四季中嗜之如命的“饮料”就是朗姆酒。据说,朗姆酒一能消毒伤口,二能驱寒,三能壮胆、忘却忧伤、驱散烦恼,所以,对海盗们来说,可以没有食物,没有金币,但不能没有朗姆酒。

  九、海盗的食品17世纪,还没有发明冷藏技术。不论多么先进的商船、货船、捕鲸船或者海盗船,船上都没有冷藏设备。对海盗来说,他们常年四海为家,居无定所,有时几个月都无法配备给养,食物之恶劣可想而知,一般情况下,海盗们能吃到发霉的面粉与米饭、腌乳酪、咸肉和鱼。而在特殊情况下,那就只好以海鸟、老鼠等艰难度日。而加勒比海诸岛上和太平洋岛屿上成群结队的大海龟,其寿命可长达150至200岁,成熟的巨龟体重能达135~180公斤。它们不仅肉味鲜美,且与所有的龟种一样,有着惊人的耐饥能力,可以不吃不喝连续维持数个月的生命。有的龟甚至可以5年不进食,这种种的优点为它们引来杀身之祸,被许多海盗捉到船上,成了海盗们一年四季的新鲜食物。

代码
    Complete name : History.International.True.Carribean.Pirates.FS.PDTV.x264-PhatWarez.mkv
    Format : Matroska
    File size : 698 MiB
    Duration : 1h 30mn
    Overall bit rate : 1 078 Kbps
    Encoded date : UTC 2010-09-24 17:16:00
    Writing application : mkvmerge v4.0.0 ('The Stars were mine') built on Jun 6 2010 16:18:42
    Writing library : libebml v1.0.0 + libmatroska v1.0.0

    Video
    ID : 1
    Format : AVC
    Format/Info : Advanced Video Codec
    Format profile : High@L4.0
    Format settings, CABAC : Yes
    Format settings, ReFrames : 16 frames
    Muxing mode : Container profile=Unknown@4.0
    Codec ID : V_MPEG4/ISO/AVC
    Duration : 1h 30mn
    Bit rate : 959 Kbps
    Width : 720 pixels
    Height : 480 pixels
    Display aspect ratio : 4:3
    Original display aspect ratio : 4:3
    Frame rate : 23.976 fps
    Standard : NTSC
    Resolution : 8 bits
    Colorimetry : 4:2:0
    Scan type : Progressive
    Bits/(Pixel*Frame) : 0.116
    Stream size : 609 MiB (87%)
    Writing library : x264 core 98 r1649 c54c47d
    Encoding settings : cabac=1 / ref=16 / deblock=1:0:0 / analyse=0x3:0x133 / me=umh / subme=10 / psy=1 / psy_rd=1.00:0.00 / mixed_ref=1 / me_range=24 / chroma_me=1 / trellis=2 / 8x8dct=1 / cqm=0 / deadzone=21,11 / fast_pskip=1 / chroma_qp_offset=-2 / threads=3 / sliced_threads=0 / nr=0 / decimate=1 / interlaced=0 / constrained_intra=0 / bframes=8 / b_pyramid=2 / b_adapt=2 / b_bias=0 / direct=3 / weightb=1 / weightp=2 / keyint=250 / keyint_min=25 / scenecut=40 / intra_refresh=0 / rc_lookahead=60 / rc=2pass / mbtree=1 / bitrate=959 / ratetol=1.0 / qcomp=0.60 / qpmin=10 / qpmax=51 / qpstep=4 / cplxblur=20.0 / qblur=0.5 / ip_ratio=1.40 / aq=1:1.00

    Audio
    ID : 2
    Format : MPEG Audio
    Format version : Version 1
    Format profile : Layer 3
    Mode : Joint stereo
    Format_Settings_ModeExtension : MS Stereo
    Codec ID : A_MPEG/L3
    Codec ID/Hint : MP3
    Duration : 1h 30mn
    Bit rate mode : Variable
    Bit rate : 116 Kbps
    Minimum bit rate : 32.0 Kbps
    Channel(s) : 2 channels
    Sampling rate : 48.0 KHz
    Stream size : 75.5 MiB (11%)
    Writing library : LAME3.98r
    Encoding settings : -m j -V 3 -q 0 -lowpass 18 --vbr-new -b 32

正在读取……

这里是其它用户补充的资源(我也要补充):

暂无补充资源
正在加载,请稍等...

点击查看所有20网友评论

 

(?) [公告]留口水、评论相关规则 | [活动]每日签到 轻松领取电驴经验

    小贴士:
  1. 类似“顶”、“沙发”之类没有营养的文字,对勤劳贡献的楼主来说是令人沮丧的反馈信息。
  2. 提问之前请再仔细看一遍楼主的说明,或许是您遗漏了。
  3. 勿催片。请相信驴友们对分享是富有激情的,如果确有更新版本,您一定能搜索到。
  4. 请勿到处挖坑绊人、招贴广告。既占空间让人厌烦,又没人会搭理,于人于己都无利。
  5. 如果您发现自己的评论不见了,请参考以上4条。