v

您的位置:VeryCD综艺纪录片

综艺资源事务区


《旅游频道:地球奇迹》(Travel Channel: Earth Wonders)全5集[HDTV]

  • 状态: 精华资源
  • 摘要:
    发行时间2010年
    地区美国
    语言英语
  • 时间: 2010/10/06 20:45:26 发布 | 2010/10/06 21:06:42 更新
  • 分类: 综艺  纪录片 

life_is_good

精华资源: 6571

全部资源: 7301

相关: 分享到新浪微博   转播到腾讯微博   分享到开心网   分享到人人   分享到QQ空间   订阅本资源RSS更新   美味书签  subtitle
该内容尚未提供权利证明,无法提供下载。
中文名旅游频道:地球奇迹
英文名Travel Channel: Earth Wonders
资源格式HDTV
版本全5集
发行时间2010年
制作发行Travel Channel
地区美国
语言英语
简介

IPB Image

【类型】: 纪录
【影片长度】: 平均40分钟
【集数】:全5集
【字幕】: 暂无
【服务器】: 随机
【分享时间】:全天

【内容介绍】:

这是Travel Channel (USA) 旅游频道推出的《Earth Wonders》“世界奇观”系列. 每一部向大家介绍了世界各地不同的迷人的“世界奇观“.(xiaochenjia)

This high-definition series goes around the world to film the world's most outstanding natural wonders, including: Niagara Falls; Africa's Ngorongoro crater; Redwoods National Park; Iceland's glaciers; Bora Bora; Yosemite; Uluru in Australia's outback; Alaska's Glacier Bay; the Amazon; America's Monument Valley; New Zealand's Milford Sound; Africa's Serengeti; Bay of Fundy.

代码
    Complete name : Earth WondersEarth.Wonders.Part01.HDTV.XviD-MOMENTUM.avi
    Format : AVI
    Format/Info : Audio Video Interleave
    Format profile : OpenDML
    File size : 349 MiB
    Duration : 43mn 29s
    Overall bit rate : 1 122 Kbps
    Writing application : AVI-Mux GUI 1.17.8.3, Feb 16 201019:42:50

    Video
    ID : 0
    Format : MPEG-4 Visual
    Format profile : Advanced Simple@L5
    Format settings, BVOP : Yes
    Format settings, QPel : No
    Format settings, GMC : No warppoints
    Format settings, Matrix : Default (MPEG)
    Codec ID : XVID
    Codec ID/Hint : XviD
    Duration : 43mn 29s
    Bit rate : 991 Kbps
    Width : 624 pixels
    Height : 352 pixels
    Display aspect ratio : 16:9
    Frame rate : 29.970 fps
    Resolution : 8 bits
    Colorimetry : 4:2:0
    Scan type : Progressive
    Bits/(Pixel*Frame) : 0.151
    Stream size : 308 MiB (88%)
    Writing library : XviD 1.2.1 (UTC 2008-12-04)

    Audio
    ID : 1
    Format : MPEG Audio
    Format version : Version 1
    Format profile : Layer 3
    Mode : Joint stereo
    Codec ID : 55
    Codec ID/Hint : MP3
    Duration : 43mn 29s
    Bit rate mode : Variable
    Bit rate : 121 Kbps
    Nominal bit rate : 128 Kbps
    Channel(s) : 2 channels
    Sampling rate : 48.0 KHz
    Stream size : 37.7 MiB (11%)
    Alignment : Aligned on interleaves
    Interleave, duration : 24 ms (0.72 video frame)
    Interleave, preload duration : 218 ms
    Title : wonders_pt1_Output
    Writing library : LAME3.98r
    Encoding settings : -m j -V 4 -q 2 -lowpass 17 --abr 128

正在读取……

这里是其它用户补充的资源(我也要补充):

暂无补充资源
正在加载,请稍等...

点击查看所有23网友评论

 

(?) [公告]留口水、评论相关规则 | [活动]每日签到 轻松领取电驴经验

    小贴士:
  1. 类似“顶”、“沙发”之类没有营养的文字,对勤劳贡献的楼主来说是令人沮丧的反馈信息。
  2. 提问之前请再仔细看一遍楼主的说明,或许是您遗漏了。
  3. 勿催片。请相信驴友们对分享是富有激情的,如果确有更新版本,您一定能搜索到。
  4. 请勿到处挖坑绊人、招贴广告。既占空间让人厌烦,又没人会搭理,于人于己都无利。
  5. 如果您发现自己的评论不见了,请参考以上4条。