v

您的位置:VeryCD动漫剧场动画

动漫资源事务区


《命运长夜剧场版》(Fate/stay night Unlimited Blade Works)[动漫花园字幕组][GB][720P][MP4]

  • 状态: 精华资源
  • 摘要:
    发行时间2010年1月23日
    语言日语
  • 时间: 2010/10/01 00:10:20 发布 | 2010/10/02 00:10:38 更新
  • 分类: 动漫  剧场动画 

cainqs

精华资源: 1

全部资源: 1

相关: 分享到新浪微博   转播到腾讯微博   分享到开心网   分享到人人   分享到QQ空间   订阅本资源RSS更新   美味书签  subtitle
该内容尚未提供权利证明,无法提供下载。
中文名命运长夜剧场版
英文名Fate/stay night Unlimited Blade Works
别名无限剑制
资源格式MP4
版本[动漫花园字幕组][GB][720P]
发行时间2010年1月23日
导演山口祐司
地区日本
语言日语
简介

IPB Image

【内容介绍】

万众期待的Fate剧场版目前已确认其标题为「Fate/stay night Unlimited Blade Works」,预定2010年1月23日在日本全国电影院公开上映。正如标题所示,剧场版的内容将会是完全的新作,以原作「Fate/stay night」的攻略线之一Unlimited Blade Works、原作女主角之一远坂凛为主线展述,将主人公卫宫士郎和Archer的因缘作为故事中心进行描写。剧场版的制作将沿用TV版的制作班底和声优阵容,目前就只是比较在意篇幅不长的剧场版究竟会如何架构整条Unlimited Blade Works线了,也希望制作方能够把握好内容的精简度吧。剧场版能在半年后上映确实令人有点意外,再加上此前2CH流出的剧场版相关预言,看来官方是早有预谋了呢。
  本次《Fate/stay night》剧场版最大的看点就是有头至尾没有停过的动作场面,强烈的视觉刺激配合上川井宪次生机勃勃的音乐,将御主和从者的殊死战斗描绘得激动人心。
  此外,主人公士郎的故事也是看点之一,揭示了士郎与Archer的关系。面对接连不断的背叛和残酷的现实,想成为“正义之士”的信念也遭到指责,然而士郎依旧将信念坚持到了最后。
  这部作画枚数相当于普通动画半年份的剧场版,有着超多引人入胜的大魄力战斗场面,必杀技和连续战斗技都是不可错过的名画面。
  现决定于2010年9月30发售DVD版,售价约4500日元。

【STAFF】

原作:TYPE-MOON
监督:山口祐司
脚本:佐藤卓哉
人物设定/总作画监督:石原惠
特技监督:桥本敬史
美术监督:小山俊久
色彩设计:北爪英子
摄影监督:近藤慎与
音响监督:辻谷耕史
音乐:川井宪次
音乐制作:Geneon Universal Entertainment
主题曲:タイナカ サチ(SISTUS RECORDS)
动画制作:Studio DEEN
配给:KlockWorx/Geneon Universal Entertainment

【CAST 】

卫宫士郎:杉山纪彰
Saber:川澄綾子
远坂凛:植田佳奈
Archer:诹访部顺一
间桐 樱:下屋则子
依莉雅:门脇舞以
藤村大河:伊藤美纪
间桐慎二:神谷浩史
Rider:浅川 悠
Caster:田中敦子
葛木宗一郎:中田和宏
Berserker:西前忠久
言峰绮礼:中田让治
Assassin:三木真一郎
Lancer:神奈延年
Gilgamesh:关 智一

IPB Image
IPB Image
IPB Image
IPB Image


字幕已更新

引用
感谢网友指出,该字幕并非动漫花园出品,是雪飘字幕组的劳动成果,我下载完字幕后没有仔细核查(下载时写的是动漫花园的字幕),为此我向雪飘字幕组表示歉意,也对字幕组的辛勤劳动表示感谢。

引用
E:TDDOWNLOADCARTON[Dmhy-Raw][Fatestay night][UNLIMITED BLADE WORKS][BDrip][1280x720 x264 AAC].mp4
General
Complete name : E:TDDOWNLOADCARTON[Dmhy-Raw][Fatestay night][UNLIMITED BLADE WORKS][BDrip][1280x720 x264 AAC].mp4
Format : MPEG-4
Format profile : Base Media
Codec ID : isom
File size : 3.10 GiB
Duration : 1h 45mn
Overall bit rate : 4 197 Kbps
Encoded date : UTC 2010-09-29 04:55:30
Tagged date : UTC 2010-09-29 04:55:30
Video #1
Format : AVC
Format/Info : Advanced Video Codec
Format profile : Main@L4.1
Format settings, CABAC : Yes
Format settings, ReFrames : 5 frames
Codec ID : avc1
Codec ID/Info : Advanced Video Coding
Duration : 1h 45mn
Bit rate mode : Variable
Bit rate : 4 000 Kbps
Maximum bit rate : 13.7 Mbps
Width : 1 280 pixels
Height : 720 pixels
Display aspect ratio : 16/9
Frame rate mode : Constant
Frame rate : 29.970 fps
Resolution : 24 bits
Colorimetry : 4:2:0
Scan type : Progressive
Bits/(Pixel*Frame) : 0.145
Stream size : 2.95 GiB (95%)
Title : Imported with GPAC 0.4.6-DEV (build 1)
Writing library : x264 core 66 r1113M cc4f807
Encoding settings : cabac=1 / ref=5 / deblock=1:1:0 / analyse=0x1:0x111 / me=umh / subme=9 / psy_rd=1.0:0.0 / mixed_ref=1 / me_range=16 / chroma_me=1 / trellis=1 / 8x8dct=0 / cqm=0 / deadzone=21,11 / chroma_qp_offset=-2 / threads=3 / nr=0 / decimate=1 / mbaff=0 / bframes=2 / b_pyramid=1 / b_adapt=1 / b_bias=0 / direct=2 / wpredb=1 / keyint=250 / keyint_min=25 / scenecut=40(pre) / rc=2pass / bitrate=4000 / ratetol=1.0 / qcomp=0.60 / qpmin=10 / qpmax=51 / qpstep=4 / cplxblur=20.0 / qblur=0.5 / vbv_maxrate=50000 / vbv_bufsize=50000 / ip_ratio=1.40 / pb_ratio=1.30 / aq=1:1.00
Encoded date : UTC 2010-09-29 04:55:30
Tagged date : UTC 2010-09-29 04:58:51
Audio #2
Format : AAC
Format/Info : Advanced Audio Codec
Format version : Version 4
Format profile : LC
Format settings, SBR : No
Codec ID : 40
Duration : 1h 45mn
Bit rate mode : Variable
Bit rate : 192 Kbps
Maximum bit rate : 242 Kbps
Channel(s) : 2 channels
Channel positions : L R
Sampling rate : 48.0 KHz
Resolution : 16 bits
Stream size : 146 MiB (5%)
Encoded date : UTC 2010-09-29 04:58:41
Tagged date : UTC 2010-09-29 04:58:51

正在读取……

这里是其它用户补充的资源(我也要补充):

暂无补充资源
正在加载,请稍等...

点击查看所有171网友评论

 

(?) [公告]留口水、评论相关规则 | [活动]每日签到 轻松领取电驴经验

    小贴士:
  1. 类似“顶”、“沙发”之类没有营养的文字,对勤劳贡献的楼主来说是令人沮丧的反馈信息。
  2. 提问之前请再仔细看一遍楼主的说明,或许是您遗漏了。
  3. 勿催片。请相信驴友们对分享是富有激情的,如果确有更新版本,您一定能搜索到。
  4. 请勿到处挖坑绊人、招贴广告。既占空间让人厌烦,又没人会搭理,于人于己都无利。
  5. 如果您发现自己的评论不见了,请参考以上4条。