v

您的位置:VeryCD动漫电视动画

动漫资源事务区


《贝兹娃娃:拯救宠物》(Bratz: Pampered Petz)[DVDRip]

  • 状态: 精华资源
  • 摘要:
    发行时间2010年
    语言英语
  • 时间: 2010/09/30 10:39:21 发布 | 2010/09/30 19:38:02 更新
  • 分类: 动漫  电视动画 

life_is_good

精华资源: 6571

全部资源: 7301

相关: 分享到新浪微博   转播到腾讯微博   分享到开心网   分享到人人   分享到QQ空间   订阅本资源RSS更新   美味书签  subtitle
该内容尚未提供权利证明,无法提供下载。
中文名贝兹娃娃:拯救宠物
英文名Bratz: Pampered Petz
资源格式DVDRip
发行时间2010年
导演Bob Dusett
配音演员Bob Doucette
地区美国,加拿大
语言英语
简介

IPB Image

【首播时间】 2010年10月5日DVD发售 (Amazon.com)
【字幕制作】 暂无

【内容介绍】

Bratz的朋友Lola遇到一个难题,她收养了许多无家可归的宠物,然而邻居对此表示反感并报警。Bratz于是发挥聪明才智,希望举行一场慈善音乐会来拯救这些动物。(文:life_is_good@YDY)

When Lola, a friend of the Bratz Girlz, is faced with eviction for harboring animals that she has rescued, the Bratz must combine their brainpower and talent to save them. The result is a hot rhythm benefit concert staged with the intent to find homes for all of Lola's adorable Petz. To assure their success, the Girlz accessorize and bling-out the Petz in true Bratz style

【STAFF】

Bob Dusett

【CAST】

Bob Doucette

http://z1.zod.fr/z/bratz-pampered-petz-2010-dvdrip--ZKcb.jpg

http://z1.zod.fr/z/bratz-pampered-petz-2010-dvdrip--0Kcb.jpg

http://z1.zod.fr/z/bratz-pampered-petz-2010-dvdrip--1Kcb.jpg

代码
Video
ID                               : 0
Format                           : MPEG-4 Visual
Format profile                   : Advanced Simple@L5
Format settings, BVOP            : Yes
Format settings, QPel            : No
Format settings, GMC             : No warppoints
Format settings, Matrix          : Custom
Codec ID                         : XVID
Codec ID/Hint                    : XviD
Duration                         : 1h 15mn
Bit rate                         : 1 100 Kbps
Width                            : 720 pixels
Height                           : 416 pixels
Display aspect ratio             : 16:9
Frame rate                       : 23.976 fps
Resolution                       : 8 bits
Colorimetry                      : 4:2:0
Scan type                        : Progressive
Bits/(Pixel*Frame)               : 0.153
Stream size                      : 595 MiB (85%)
Writing library                  : XviD 1.2.1 (UTC 2008-12-04)

[color=Red]Audio[/color]
ID                               : 1
Format                           : MPEG Audio
Format version                   : Version 1
Format profile                   : Layer 3
Format_Settings_Mode             : Joint stereo
Format_Settings_ModeExtension    : MS Stereo
Codec ID                         : 55
Codec ID/Hint                    : MP3
Duration                         : 1h 15mn
Bit rate mode                    : Constant
Bit rate                         : 192 Kbps
Channel(s)                       : 2 channels
Sampling rate                    : 48.0 KHz
Stream size                      : 104 MiB (15%)
Alignment                        : Aligned on interleaves
Interleave, duration             : 83 ms (2.00 video frames)
Interleave, preload duration     : 504 ms
Writing library                  : LAME3.97
Encoding settings                : -m j -V 4 -q 2 -lowpass 18.6 -b 192
Language                         : English

正在读取……

这里是其它用户补充的资源(我也要补充):

暂无补充资源
正在加载,请稍等...

点击查看所有8网友评论

 

(?) [公告]留口水、评论相关规则 | [活动]每日签到 轻松领取电驴经验

    小贴士:
  1. 类似“顶”、“沙发”之类没有营养的文字,对勤劳贡献的楼主来说是令人沮丧的反馈信息。
  2. 提问之前请再仔细看一遍楼主的说明,或许是您遗漏了。
  3. 勿催片。请相信驴友们对分享是富有激情的,如果确有更新版本,您一定能搜索到。
  4. 请勿到处挖坑绊人、招贴广告。既占空间让人厌烦,又没人会搭理,于人于己都无利。
  5. 如果您发现自己的评论不见了,请参考以上4条。