v

您的位置:VeryCD动漫电视动画

动漫资源事务区


《小小消防队:Pontypandy的大火》(Fireman Sam: the Great Fire of Pontypandy)[DVDRip]

  • 状态: 精华资源
  • 摘要:
    发行时间2010年
    语言英语
  • 时间: 2010/09/28 15:30:50 发布 | 2010/09/29 00:17:44 更新
  • 分类: 动漫  电视动画 

life_is_good

精华资源: 6571

全部资源: 7301

相关: 分享到新浪微博   转播到腾讯微博   分享到开心网   分享到人人   分享到QQ空间   订阅本资源RSS更新   美味书签  subtitle
该内容尚未提供权利证明,无法提供下载。
中文名小小消防队:Pontypandy的大火
英文名Fireman Sam: the Great Fire of Pontypandy
资源格式DVDRip
发行时间2010年
地区英国
语言英语
简介

IPB Image
【首播时间】2010
【字幕制作】暂无

【内容介绍】

《小小救生队》(Fireman Sam)

小小救生队的故事是发生在英国威尔斯邦迪的村庄,叙述消防员山姆每日面对不同的危险状况,搭救朋友和消防队员的冒险故事。

安全第一是小小救生队中的主题,同时也是影集深受父母和孩童们喜爱的主因之一。小小救生队中精采的故事情节和充满幽默的逗趣对白,相当适合全家观赏。

已被翻译成25种语言,并在40多个国家播出过!

连续16年在英国BBC(点这里去BBC查询)及S4C频道演出。

内容富有教育性、娱乐性,并可教导孩子正确的安全观念。

拥有高度的知名度,并深受全球父母的肯定。

【STAFF】

Dave Gingell
Dave Jones
Rob Lee

【CAST】

John Sparkes
Joanna Ruiz
Sarah Hadland

http://z1.zod.fr/z/firemansamthegreatfireofpontypan-FEcb.jpg

http://z1.zod.fr/z/firemansamthegreatfireofpontypan-GEcb.jpg

http://z1.zod.fr/z/firemansamthegreatfireofpontypan-HEcb.jpg

代码
Release Title: Fireman Sam The Great Fire of Pantypandy 2010 DVDRip - TLS
DVD Release Date: Apil 2nd, 2010
Rip Release Date 27/9/2010
Platform: Xvid
Genre:Childrens
Size: 707 MB (741,495,062 bytes)
Number of files: 49x14.7mb Rar,1 sample,1 NFO,1 SFV and 1 Pic Sample

Movie Description
When Fireman Sam performs a super-heroic rescue, he is awarded a special bravery medal and offered a new job in Newtown by visiting Chief Fire Officer Boyce. Meanwhile, a Pontypandy Pioneer Scouts camping trip, results in a forest fire that threatens to engulf Pontypandy, forcing everyone to prepare to evacuate ! Will Fireman Sam leave his beloved town, and will this be the end of Pontypandy ? Find out in this all-new special !
Synopsis
All of Sam's fire-fighting skill and experience is put to the test when a forest fire threatens to engulf his beloved Pontypandy, in this great new full-length adventure!

Releaser's Notes:

Enjoy this Rip


Specs:


Video
ID                             : 0
Format                         : MPEG-4 Visual
Format profile                 : Advanced Simple@L5
Format settings, BVOP            : Yes
Format settings, QPel            : No
Format settings, GMC           : No warppoints
Format settings, Matrix          : Custom
Codec ID                       : XVID
Codec ID/Hint                    : XviD
Duration                       : 1h 0mn
Bit rate                       : 1 423 Kbps
Width                            : 640 pixels
Height                         : 368 pixels
Display aspect ratio           : 16:9
Frame rate                     : 25.000 fps
Resolution                     : 8 bits
Colorimetry                      : 4:2:0
Scan type                        : Progressive
Bits/(Pixel*Frame)             : 0.242
Stream size                      : 614 MiB (88%)
Writing library                  : XviD 1.2.1 (UTC 2008-12-04)

Audio
ID                             : 1
Format                         : MPEG Audio
Format version                 : Version 1
Format profile                 : Layer 3
Format_Settings_Mode           : Joint stereo
Format_Settings_ModeExtension    : MS Stereo
Codec ID                       : 55
Codec ID/Hint                    : MP3
Duration                       : 1h 0mn
Bit rate mode                    : Constant
Bit rate                       : 192 Kbps
Channel(s)                     : 2 channels
Sampling rate                    : 48.0 KHz
Stream size                      : 82.9 MiB (12%)
Alignment                        : Aligned on interleaves
Interleave, duration           : 80 ms (2.00 video frames)
Interleave, preload duration   : 504 ms
Writing library                  : LAME3.97
Encoding settings                : -m j -V 4 -q 2 -lowpass 18.6 -b 192
Language                       : English

正在读取……

这里是其它用户补充的资源(我也要补充):

暂无补充资源
正在加载,请稍等...

点击查看所有16网友评论

 

(?) [公告]留口水、评论相关规则 | [活动]每日签到 轻松领取电驴经验

    小贴士:
  1. 类似“顶”、“沙发”之类没有营养的文字,对勤劳贡献的楼主来说是令人沮丧的反馈信息。
  2. 提问之前请再仔细看一遍楼主的说明,或许是您遗漏了。
  3. 勿催片。请相信驴友们对分享是富有激情的,如果确有更新版本,您一定能搜索到。
  4. 请勿到处挖坑绊人、招贴广告。既占空间让人厌烦,又没人会搭理,于人于己都无利。
  5. 如果您发现自己的评论不见了,请参考以上4条。