v

您的位置:VeryCD综艺纪录片

综艺资源事务区


《PBS 新星 什么是梦》(PBS NOVA What Are Dreams 2009 )中英双语字幕[720P]

  • 状态: 精华资源
  • 摘要:
    发行时间2009年11月24日
    地区美国
    语言英语
  • 时间: 2010/09/12 14:09:11 发布 | 2010/09/12 14:31:47 更新
  • 分类: 综艺  纪录片 

xiaochenjia

精华资源: 673

全部资源: 675

相关: 分享到新浪微博   转播到腾讯微博   分享到开心网   分享到人人   分享到QQ空间   订阅本资源RSS更新   美味书签  subtitle
该内容尚未提供权利证明,无法提供下载。
中文名PBS 新星 什么是梦
英文名PBS NOVA What Are Dreams 2009
资源格式720P
版本中英双语字幕
发行时间2009年11月24日
制作发行PBS
地区美国
语言英语
简介

IPB Image


◆频道: PBS
◆剧名:PBS NOVA What Are Dreams 2009 什么是梦
◆类型:记录
◆首播:2009年11月24日
◆服务器:随机
◆分享时间:随机

IPB Image

顶尖的研究梦的原理的科学家向我们展示了他们研究睡眠世界的非凡仪器。

官网链接: http://www.pbs.org/wgbh/nova/dreams/

引用
感谢制作组压制发布网友 字幕为人人影视制作的中英双语特效字幕 感谢分享


What are dreams and why do we have them? NOVA joins leading dream researchers as they embark on a variety of neurological and psychological experiments to investigate the world of sleep and dreams. Delving deep into the thoughts and brains of a variety of dreamers, scientists are asking important questions about the purpose of this mysterious realm we escape to at night. Do dreams allow us to get a good night's sleep? Do they improve memory? Do they allow us to be more creative? Can they solve our problems or even help us survive the hazards of everyday life?

NOVA follows a number of scientists, including Matthew Wilson of MIT, who is literally "eavesdropping" on the dreams of rats, and other investigators who are systematically analyzing the content of thousands of human dreams. From people who violently act out their dreams to those who can't stop their nightmares, from sleepwalking cats to the rare instances of individuals who don't seem to ever dream, each fascinating case study contains a vital clue to the age-old question: What Are Dreams?

IPB Image

代码
PBS.NOVA.What.Are.Dreams.2009.720p.HDTV.x264-ORENJi\PBS.NOVA.What.Are.Dreams.2009.720p.HDTV.x264-ORENJi.mkv
   General
      Complete name : PBS.NOVA.What.Are.Dreams.2009.720p.HDTV.x264-ORENJi\PBS.NOVA.What.Are.Dreams.2009.720p.HDTV.x264-ORENJi.mkv
      Format : Matroska
      File size : 1.46 GiB
      Duration : 51mn 40s
      Overall bit rate : 4 036 Kbps
      Encoded date : UTC 2009-11-25 08:15:15
      Writing application : mkvmerge v2.3.0 ('Freak U') built on Oct  7 2008 20:39:59
      Writing library : libebml v0.7.7 + libmatroska v0.8.1
   Video #2
      ID : 2
      Format : AVC
      Format/Info : Advanced Video Codec
      Format profile : High@L3.1
      Format settings, CABAC : Yes
      Format settings, ReFrames : 5 frames
      Muxing mode : Container profile=Unknown@3.1
      Codec ID : V_MPEG4/ISO/AVC
      Duration : 51mn 37s
      Bit rate : 3 508 Kbps
      Nominal bit rate : 3 585 Kbps
      Width : 1 280 pixels
      Height : 720 pixels
      Display aspect ratio : 16:9
      Frame rate : 23.976 fps
      Resolution : 8 bits
      Colorimetry : 4:2:0
      Scan type : Progressive
      Bits/(Pixel*Frame) : 0.159
      Stream size : 1.26 GiB (87%)
      Writing library : x264 core 68 r1184tw
      Encoding settings : cabac=1 / ref=5 / deblock=1:0:0 / analyse=0x3:0x113 / me=umh / subme=8 / psy_rd=1.0:0.0 / mixed_ref=1 / me_range=16 / chroma_me=1 / trellis=1 / 8x8dct=1 / cqm=0 / deadzone=21,11 / chroma_qp_offset=-2 / threads=6 / nr=0 / decimate=1 / mbaff=0 / bframes=3 / b_pyramid=1 / b_adapt=1 / b_bias=0 / direct=1 / wpredb=1 / keyint=240 / keyint_min=24 / scenecut=40 / rc=2pass / bitrate=3585 / ratetol=1.0 / qcomp=0.60 / qpmin=10 / qpmax=51 / qpstep=4 / cplxblur=20.0 / qblur=0.5 / ip_ratio=1.40 / pb_ratio=1.30 / aq=1:1.00
      Language : English
   Audio #1
      ID : 1
      Format : AC-3
      Format/Info : Audio Coding 3
      Codec ID : A_AC3
      Duration : 51mn 40s
      Bit rate mode : Constant
      Bit rate : 448 Kbps
      Channel(s) : 6 channels
      Channel positions : Front: L C R, Surround: L R, LFE
      Sampling rate : 48.0 KHz
      Stream size : 166 MiB (11%)


引用
资源来自网络收集 未经过一一的质量 安全等检测
只是把收集的资源和各位驴友分享 仅作网络学习交流使用 请勿用于商业用途 !
希望各位下载的驴友能多多参与分流保源 happy.gif

正在读取……

这里是其它用户补充的资源(我也要补充):

暂无补充资源
正在加载,请稍等...

点击查看所有19网友评论

 

(?) [公告]留口水、评论相关规则 | [活动]每日签到 轻松领取电驴经验

    小贴士:
  1. 类似“顶”、“沙发”之类没有营养的文字,对勤劳贡献的楼主来说是令人沮丧的反馈信息。
  2. 提问之前请再仔细看一遍楼主的说明,或许是您遗漏了。
  3. 勿催片。请相信驴友们对分享是富有激情的,如果确有更新版本,您一定能搜索到。
  4. 请勿到处挖坑绊人、招贴广告。既占空间让人厌烦,又没人会搭理,于人于己都无利。
  5. 如果您发现自己的评论不见了,请参考以上4条。