v

您的位置:VeryCD音乐华语音乐

音乐资源事务区


卓依婷 -《化蝶1》[WAV]

  • 状态: 精华资源
  • 摘要:
    音乐风格流行
    发行时间1997年
    语言普通话
  • 时间: 2010/09/07 12:57:28 发布 | 2010/09/09 12:28:31 更新
  • 分类: 音乐  华语音乐 

micty

精华资源: 51

全部资源: 54

相关: 分享到新浪微博   转播到腾讯微博   分享到开心网   分享到人人   分享到QQ空间   订阅本资源RSS更新   美味书签  subtitle
该内容尚未提供权利证明,无法提供下载。
专辑中文名化蝶1
歌手卓依婷
音乐风格流行
版本[WAV]
发行时间1997年
语言普通话
简介

IPB Image

专辑介绍:

抛开一切束缚,让思绪随着依婷的歌声尤如蝴蝶一般,展翅翩翩飞翔。专辑取名《化蝶》,是希望卓依婷能在辛苦的蜕变后幻化成美丽的彩蝶,这张专辑也让她的演艺事业渐入隹境,美丽的彩蝶在飞舞,让我们看她的精湛的演出吧!

专辑图片

IPB Image

IPB Image

IPB Image

IPB Image


引用
Exact Audio Copy V0.99 prebeta 4 from 23. January 2008

EAC 抓取日志文件从14. 三月 2009, 8:57

卓依婷 / -

使用驱动器 :PIONEER DVD-RW DVR-116 Adapter: 0 ID: 0

读取模式 : 保护
使用精确流 : 是
废除音频缓冲 : 是
使用 C2 指针 : 否

读取偏移校正 : 0
读取 Lead-In 和 Lead-Out : 否
用静音填充抓取中丢失偏移的采样 : 是
去除首尾静音块 : 否
在 CRC 计算中使用了空样本 : 否
已用接口 : Win NT 及 2000 本地 Win32 接口

所用输出格式 : 内部 WAV 函数
样本格式 : 44.100 Hz;16 Bit;立体声


被抓轨 CD 的 TOC

音轨 | 开始 | 长度 | 起始扇区 | 结尾扇区
--------------------------------------------------
1 | 0:00.00 | 4:03.47 | 0 | 18271
2 | 4:03.47 | 4:08.00 | 18272 | 36871
3 | 8:11.47 | 4:50.17 | 36872 | 58638
4 | 13:01.64 | 3:45.51 | 58639 | 75564
5 | 16:47.40 | 5:11.14 | 75565 | 98903
6 | 21:58.54 | 4:27.23 | 98904 | 118951
7 | 26:26.02 | 3:05.33 | 118952 | 132859
8 | 29:31.35 | 4:24.40 | 132860 | 152699
9 | 33:56.00 | 3:14.72 | 152700 | 167321
10 | 37:10.72 | 5:00.10 | 167322 | 189831
11 | 42:11.07 | 4:53.53 | 189832 | 211859
12 | 47:04.60 | 4:53.02 | 211860 | 233836
13 | 51:57.62 | 3:34.63 | 233837 | 249949
14 | 55:32.50 | 4:33.07 | 249950 | 270431


范围状态及错误

已选择范围

文件名 H:\国语女歌星专辑\卓依婷.wav

峰值电平 97.8 %
范围质量 99.9 %
复制 CRC 34C5513D
复制成功

没有错误发生

状态报告结尾



专辑曲目

01.长相依
02.雾里看花
03.原来你什么都不要
04.冰糖葫芦
05.天使在夜里哭
06.我不想说(卓依婷vs周伟杰)
07.化蝶(卓依婷vs周伟杰)
08.你那里下雪了吗
09.故事里的故事
10.枕着你的名字入眠
11.一想到你呀
12.爱江山更爱美人
13.又见茉莉花
14.花好月圆

正在读取……

这里是其它用户补充的资源(我也要补充):

暂无补充资源
正在加载,请稍等...

点击查看所有47网友评论

 

(?) [公告]留口水、评论相关规则 | [活动]每日签到 轻松领取电驴经验

    小贴士:
  1. 类似“顶”、“沙发”之类没有营养的文字,对勤劳贡献的楼主来说是令人沮丧的反馈信息。
  2. 提问之前请再仔细看一遍楼主的说明,或许是您遗漏了。
  3. 勿催片。请相信驴友们对分享是富有激情的,如果确有更新版本,您一定能搜索到。
  4. 请勿到处挖坑绊人、招贴广告。既占空间让人厌烦,又没人会搭理,于人于己都无利。
  5. 如果您发现自己的评论不见了,请参考以上4条。