v

您的位置:VeryCD综艺纪录片

综艺资源事务区


《PBS:植物的欲望》(PBS: The Botany of Desire)[DVDRip]

  • 状态: 精华资源
  • 摘要:
    发行时间2009年
    地区美国
    语言英语
  • 时间: 2010/09/06 06:49:04 发布 | 2010/09/06 16:34:20 更新
  • 分类: 综艺  纪录片 

life_is_good

精华资源: 6571

全部资源: 7301

相关: 分享到新浪微博   转播到腾讯微博   分享到开心网   分享到人人   分享到QQ空间   订阅本资源RSS更新   美味书签  subtitle
该内容尚未提供权利证明,无法提供下载。
中文名PBS:植物的欲望
英文名PBS: The Botany of Desire
别名植物的秘密生活
资源格式DVDRip
发行时间2009年
制作发行PBS
地区美国
语言英语
简介

IPB Image

◎译  名 植物的欲望/植物的秘密生活
◎片  名 Botany Of Desire
◎年  代 2009
◎国  家 美国
◎类  别 纪录片
◎语  言 英语
◎字  幕 N/A
◎IMDB评分 8.1/10 (38 votes)
◎IMDB链接 http://www.imdb.com/title/tt1421383
◎文件格式 XviD + MP3
◎视频尺寸 624 x 336
◎文件大小 2CD 2 x 50 x 15MB
◎片  长 116 Mins
◎导  演 Michael Schwarz
      Edward Gray (co-director)
◎主  演 Frances McDormand ... Narrator
      Michael Pollan ... Himself

◎简  介 

  《植物的欲望》改编自迈克尔·普兰(Michael Pollan)的同名著作。

  本片讲述了四种日常生活中常见的植物以及它们如何让人类喜欢它们的故事。1983年,迈克尔·普兰与他的妻子离开纽约城,到一个被遗弃的奶牛场定居。普兰幼时一直对园艺十分着迷,再加上他对自己把握自然的能力深信不疑,他开始开垦自己的花园。那时的他还不知道这一行动最终促使他开始重新思考人与植物的关系,也成就了他的《植物的欲望》这本书成为书架上的畅销货。本片将带领观众走遍全世界,从位于秘鲁和美国爱达荷州的马铃薯菜园到哈萨克的苹果林,从阿姆斯特丹的郁金香市场到美国的医用大麻的培养室,探寻马铃薯、苹果、郁金香以及大麻的自然史,得出结论:人类对它们的渴望将它们的命运与我们息息相关。本片由迈克尔·施瓦茨(Michael Schwarz)执导。

改编自这本畅销书的纪录片《欲望植物》带领观众走遍全世界,从位于秘鲁和美国爱达荷州的马铃薯菜园到哈萨克斯坦的苹果林,从阿姆斯特丹的郁金香市场到美国的医用大麻的培养室,探寻马铃薯、苹果、郁金香以及大麻的自然史,得出结论:人类对它们的渴望将它们的命运与我们息息相关。

代码
   ARTiCHOKE  
                                          
SPRiNTER proudly presents...
                              
The.Botany.Of.Desire.2009.DVDRip.XViD-SPRiNTER
http://www.imdb.com/title/tt1421383/

Audio: English
Subtitles: N/A

Date: 2010.09

Directors: Michael Schwarz | Edward Grey

Genre: Docu

Plot : Michael Pollan, a professor of journalism and a student of food, presents the history of four plants,
        each of which found a way to make itself essential to humans, thus ensuring widespread propagation.
        Apples, for sweetness; tulips, for beauty; marijuana, for pleasure; and, potatoes, for sustenance.
        Each has a story of discovery and adaptation; each has a symbiotic relationship with human civilization.
          The film tells these stories and examines these relationships.

Cast


        Frances McDormand       ...     Narrator
        Michael Pollan  ...     Himself

              
              
Release notes
              
Hybrid Source

        
Greetings

  NTX aAF FiCO HNR CiNEFiLE AEN HUMANiSM

        
Details
        
Format                           : AVI
Format/Info                      : Audio Video Interleave
File size                        : 1.37 GiB
Duration                         : 1h 56mn
Overall bit rate                 : 1 683 Kbps
Writing application              : Nandub v1.0rc2
Writing library                  : Nandub build 1852/release

Video
ID                               : 0
Format                           : MPEG-4 Visual
Format profile                   : AdvancedSimple@L5
Format settings, BVOP            : Yes
Format settings, QPel            : No
Format settings, GMC             : No warppoints
Format settings, Matrix          : Default (H.263)
Codec ID                         : XVID
Codec ID/Hint                    : XviD
Duration                         : 1h 56mn
Bit rate                         : 1 535 Kbps
Width                            : 624 pixels
Height                           : 336 pixels
Display aspect ratio             : 1.857
Frame rate                       : 29.970 fps
Resolution                       : 24 bits
Colorimetry                      : 4:2:0
Scan type                        : Progressive
Bits/(Pixel*Frame)               : 0.244
Stream size                      : 1.25 GiB (91%)
Writing library                  : XviD 1.2.1 (UTC 2008-12-04)

Audio
ID                               : 1
Format                           : MPEG Audio
Format version                   : Version 1
Format profile                   : Layer 3
Codec ID                         : 55
Codec ID/Hint                    : MP3
Duration                         : 1h 56mn
Bit rate mode                    : Variable
Bit rate                         : 134 Kbps
Minimum bit rate                 : 40.0 Kbps
Channel(s)                       : 2 channels
Sampling rate                    : 48.0 KHz
Resolution                       : 16 bits
Stream size                      : 112 MiB (8%)
Alignment                        : Aligned on interleaves
Interleave, duration             : 24 ms (0.72 video frame)
Interleave, preload duration     : 284 ms
Writing library                  : LAME3.98r
Encoding settings                : -m s -V 6 -q 0 -lowpass 15.5 --vbr-new -b 40

正在读取……

这里是其它用户补充的资源(我也要补充):

暂无补充资源
正在加载,请稍等...

点击查看所有47网友评论

 

(?) [公告]留口水、评论相关规则 | [活动]每日签到 轻松领取电驴经验

    小贴士:
  1. 类似“顶”、“沙发”之类没有营养的文字,对勤劳贡献的楼主来说是令人沮丧的反馈信息。
  2. 提问之前请再仔细看一遍楼主的说明,或许是您遗漏了。
  3. 勿催片。请相信驴友们对分享是富有激情的,如果确有更新版本,您一定能搜索到。
  4. 请勿到处挖坑绊人、招贴广告。既占空间让人厌烦,又没人会搭理,于人于己都无利。
  5. 如果您发现自己的评论不见了,请参考以上4条。