v

您的位置:VeryCD动漫剧场动画

动漫资源事务区


《天堂杀手》(Godkiller)[DVDRip]

  • 状态: 精华资源
  • 摘要:
    发行时间2010年
    语言英语
  • 时间: 2010/09/02 18:24:11 发布 | 2010/09/04 14:58:24 更新
  • 分类: 动漫  剧场动画 

sky200700

精华资源: 193

全部资源: 193

相关: 分享到新浪微博   转播到腾讯微博   分享到开心网   分享到人人   分享到QQ空间   订阅本资源RSS更新   美味书签  subtitle
该内容尚未提供权利证明,无法提供下载。
中文名天堂杀手
英文名Godkiller
资源格式DVDRip
发行时间2010年
导演Matt Pizzolo
地区美国
语言英语
简介

IPB Image

【内容介绍】

    影片讲述了一个16岁的男孩Tommy的冒险旅程,男孩为了救垂死的妹妹,穿过核爆后的蛮荒地寻找一颗新的心脏。本片基于漫画改编,由获奖制片人Matt Pizzolo和插画家Anna Muckcracker联合制作。故事发生在经济崩溃后的一个黑暗未来......(sky200700)

Tommy and his kid sister, Lucy live in an orphanage in one of the few remaining city-states, but Lucy is critically ill and desperately in need of a new heart. Tommy's odyssey to find a new heart for his sister begins when he follows an organ-stealing prostitute named Halfpipe out of the city-state and into the savage borderland known as Outer City.

Godkiller mixes unforgiving brutality, quantum physics, conspiracy theory, and secret history for an iconoclastic hero's journey like none before it.

【STAFF】

  Director: Matt Pizzolo
  Writers: Matt Pizzolo (graphic novel) Matt Pizzolo (screenplay)

【CAST】

  兰斯·亨利克森 Lance Henriksen ....Mulciber (rumored)
  丹妮尔·哈丽丝 Danielle Harris ....Halfpipe (rumored)
  Justin Pierre ....Tommy
  Nicki Clyne ....Soledad
  Davey Havok ....Dragos
  蒂凡妮·谢皮斯 Tiffany Shepis ....Angel[内容被过滤,请注意论坛文明]
  比尔·莫斯利 Bill Moseley ....Dr. West
  Katie Nisa ....Rose
  Lydia Lunch ....Bub

IPB Image

IPB Image

代码

     ÛÛÛÛÛÛÛÛÛÛÛÛÛÛÛÛÛÛÛÛÛÛÛÛÛÛÛÛÛÛÛÛ
ÛÛÛÛÛ                              ÛÛÛÛÛ
ÛÛ     SPRiNTER proudly presents...     ÛÛ
ÛÛÛÛÛ                              ÛÛÛÛÛ
     ÛÛÛÛÛÛÛÛÛÛÛÛÛÛÛÛÛÛÛÛÛÛÛÛÛÛÛÛÛÛÛÛ

Godkiller.2010.DVDRip.XviD-SPRiNTER
http://www.imdb.com/title/tt1384961/
Subtitles: N/A

Date: 2010.09

     ÛÛÛÛÛÛÛÛÛÛÛ
ÛÛÛÛÛ         ÛÛÛÛÛ
ÛÛ     Details     ÛÛ
ÛÛÛÛÛ         ÛÛÛÛÛ
     ÛÛÛÛÛÛÛÛÛÛÛ

Format                           : AVI
Format/Info                      : Audio Video Interleave
File size                        : 701 MiB
Duration                         : 1h 12mn
Overall bit rate                 : 1 351 Kbps
Writing application              : VirtualDubMod 1.5.10.2 (build 2540/release)
Writing library                  : VirtualDubMod build 2540/release

Video
ID                               : 0
Format                           : MPEG-4 Visual
Format profile                   : Advanced Simple@L5
Format settings, BVOP            : Yes
Format settings, QPel            : No
Format settings, GMC             : No warppoints
Format settings, Matrix          : Default (H.263)
Codec ID                         : XVID
Codec ID/Hint                    : XviD
Duration                         : 1h 12mn
Bit rate                         : 1 209 Kbps
Width                            : 640 pixels
Height                           : 352 pixels
Display aspect ratio             : 16:9
Frame rate                       : 23.976 fps
Color space                      : YUV
Chroma subsampling               : 4:2:0
Bit depth                        : 8 bits
Scan type                        : Progressive
Bits/(Pixel*Frame)               : 0.224
Stream size                      : 627 MiB (89%)
Writing library                  : XviD 1.1.2 (UTC 2006-11-01)

Audio
ID                               : 1
Format                           : MPEG Audio
Format version                   : Version 1
Format profile                   : Layer 3
Codec ID                         : 55
Codec ID/Hint                    : MP3
Duration                         : 1h 12mn
Bit rate mode                    : Variable
Bit rate                         : 129 Kbps
Minimum bit rate                 : 128 Kbps
Channel(s)                       : 2 channels
Sampling rate                    : 48.0 KHz
Stream size                      : 67.1 MiB (10%)
Alignment                        : Aligned on interleaves
Interleave, duration             : 24 ms (0.58 video frame)
Interleave, preload duration     : 481 ms
Writing library                  : LAME3.95
Encoding settings                : -m s -V 6 -q 3 -lowpass 16 --vbr-old -b 128

正在读取……

这里是其它用户补充的资源(我也要补充):

暂无补充资源
正在加载,请稍等...

点击查看所有36网友评论

 

(?) [公告]留口水、评论相关规则 | [活动]每日签到 轻松领取电驴经验

    小贴士:
  1. 类似“顶”、“沙发”之类没有营养的文字,对勤劳贡献的楼主来说是令人沮丧的反馈信息。
  2. 提问之前请再仔细看一遍楼主的说明,或许是您遗漏了。
  3. 勿催片。请相信驴友们对分享是富有激情的,如果确有更新版本,您一定能搜索到。
  4. 请勿到处挖坑绊人、招贴广告。既占空间让人厌烦,又没人会搭理,于人于己都无利。
  5. 如果您发现自己的评论不见了,请参考以上4条。