v

您的位置:VeryCD动漫电视动画

动漫资源事务区


《命运长夜》(Fate / Stay Night)[THORA][Blu-Ray][RIP][720P]

  • 状态: 精华资源
  • 摘要:
    发行时间2009年09月06日
    语言日语
  • 时间: 2010/08/31 17:52:17 发布 | 2010/09/01 12:44:14 更新
  • 分类: 动漫  电视动画 

darkangel0224

精华资源: 2

全部资源: 2

相关: 分享到新浪微博   转播到腾讯微博   分享到开心网   分享到人人   分享到QQ空间   订阅本资源RSS更新   美味书签  subtitle
该内容尚未提供权利证明,无法提供下载。
中文名命运长夜
英文名Fate / Stay Night
别名命运之夜,圣杯战争
资源格式720P
版本[THORA][Blu-Ray][RIP]
发行时间2009年09月06日
地区日本
语言日语
简介

IPB Image
【STAFF】

原作: Type-moon/奈须きのこ
构成原案: 奈须きのこ
系列构成: 佐藤卓哉
脚本: 佐藤卓哉、志茂文彦、冈田麿里、花田十辉
角色原案/监修:武内崇
动画人设: 石原惠
美术监督; 小山俊久
摄影监督: 近藤慎与
音响监督: 辻谷耕史
音响制作: DACS Production
音乐: 川井宪次
动画制作: STUDIO DEEN
出品: Fate Project

【CAST】

卫宫 士郎(えみや しろう/Shirou Emiya):杉山纪彰/野田顺子(幼年)
Saber(セイバー):川澄绫子
远坂 凛(とおさか りん/Rin Tohsaka):植田佳奈
Archer(アーチャー):诹访部顺一
伊莉雅斯菲尔·冯·爱因兹贝伦(イリヤスフィール·フォン·アインツベルン/Illyasviel von Einzbern):门胁舞以
Berserker(バーサーカー):西前忠久
藤村 大河(ふじむら たいが/Taiga Fujimura):伊藤美纪
间桐 樱(まとう さくら/Sakura Matou):下屋则子
间桐 慎二(まとう しんじ/Shinji Matou):神谷浩史
Rider(ライダー):浅川悠
Assassin(アサシン):三木真一郎
Caster(キャスター):田中敦子
Lancer(ランサー):神奈延年
Gilgamesh(アーチャー):关智一
言峰 绮礼(ことみね きれい/Kirei Kotomine):中田让治
卫宫 切嗣(えみや きりつぐ/Kiritsugu Emiya):小山力也
葛木 宗一郎(くずき そういちろう/Souichirou Kuzuki):中多和宏
柳洞 一成(りゅうどう いっせい/Issei Ryudou):真殿光昭
美缀 绫子(みつづり あやこ/Ayako Mitsuzuri):水泽史绘

【截图预览】

由于做了防盗链,图片外接显示不能(PS:错误图太猎奇XD),所以,去http://www.thoranime.org/?p=1045 自己看

【版本说明】
转载自 http://www.thoranime.org/?p=1045
THORA压制,内封英文字幕,中文字幕自行寻找。SP仅压制了 NCOP1、NCOP2 以及 NCED。
因 BDBOX仅为 1080i,所以转制成 720P并不会有太多的损失,硬盘空间也大大节约。唯一不足的是,THORA 隐藏了X264的压制参数,可能会导致部分解码器错误解码。
推荐没有收过 DVDrip,但硬盘有限的人收藏。

Media Info 信息

引用

Video
ID : 1
Format : AVC
Format/Info : Advanced Video Codec
Format profile : High@L4.1
Format settings, CABAC : Yes
Format settings, ReFrames : 8 frames
Muxing mode : Container profile=Unknown@4.1
Codec ID : V_MPEG4/ISO/AVC
Duration : 22mn 42s
Bit rate : 3 002 Kbps
Width : 1 280 pixels
Height : 720 pixels
Display aspect ratio : 16:9
Frame rate : 23.976 fps
Color space : YUV
Chroma subsampling : 4:2:0
Bit depth : 8 bits
Scan type : Progressive
Bits/(Pixel*Frame) : 0.136
Stream size : 488 MiB (89%)
Language : Japanese

Audio
ID : 2
Format : AC-3
Format/Info : Audio Coding 3
Mode extension : CM (complete main)
Codec ID : A_AC3
Duration : 22mn 42s
Bit rate mode : Constant
Bit rate : 320 Kbps
Channel(s) : 2 channels
Channel positions : Front: L R
Sampling rate : 48.0 KHz
Stream size : 52.0 MiB (9%)
Language : Japanese

Text
ID : 3
Format : ASS
Codec ID : S_TEXT/ASS
Codec ID/Info : Advanced Sub Station Alpha
Language : English

Menu
00:00:00.000 : en:Main / en:ED
00:22:10.595 : en:Next ep. preview

【其他说明】

开机时间:每周一至五 9:30AM — 3:00PM
上传带宽:2M ADSL 小水管
Emule客户端:Xtreme 7.2
DLP:SDC (Strict DLP Chinese) 双屏蔽
仅一人长期小水管供源。Thunder VeryCD 无速度纯属正常,请自觉使用非吸血客户端。

正在读取……

这里是其它用户补充的资源(我也要补充):

暂无补充资源
正在加载,请稍等...

点击查看所有45网友评论

 

(?) [公告]留口水、评论相关规则 | [活动]每日签到 轻松领取电驴经验

    小贴士:
  1. 类似“顶”、“沙发”之类没有营养的文字,对勤劳贡献的楼主来说是令人沮丧的反馈信息。
  2. 提问之前请再仔细看一遍楼主的说明,或许是您遗漏了。
  3. 勿催片。请相信驴友们对分享是富有激情的,如果确有更新版本,您一定能搜索到。
  4. 请勿到处挖坑绊人、招贴广告。既占空间让人厌烦,又没人会搭理,于人于己都无利。
  5. 如果您发现自己的评论不见了,请参考以上4条。