v

您的位置:VeryCD动漫电视动画

动漫资源事务区


《甲贺忍法帖》(Basilisk)[更新11话][美版][BDRip]

  • 状态: 精华资源
  • 摘要:
    发行时间2005年
    语言日语
  • 时间: 2010/08/20 12:40:18 发布 | 2010/10/18 08:20:33 更新
  • 分类: 动漫  电视动画 

Mr1One

精华资源: 12

全部资源: 12

相关: 分享到新浪微博   转播到腾讯微博   分享到开心网   分享到人人   分享到QQ空间   订阅本资源RSS更新   美味书签  subtitle
该内容尚未提供权利证明,无法提供下载。
中文名甲贺忍法帖
英文名Basilisk
资源格式BDRip
版本[更新11话][美版]
发行时间2005年
导演木崎文智
地区日本
语言日语
简介

IPB Image

若您无法正确使用播放器与解码器, 请勿下载
宽带优越的友友们可以尝试BT下载
字幕请自助
截图仅供参考:


IPB Image
IPB Image
IPB Image
IPB Image
IPB Image

内容简介:
庆长19年,73岁高龄的德川家康为了第三代将军继承人人选的问题而烦恼。是愚笨的哥哥竹千代,还是天资聪慧的弟弟国千代。在这乱世里第三代将军的继承问题落到了两大忍术宗家,甲贺流和伊贺流的身上。家康决定由两家各派出10名最优秀的忍者(真人电影版中为各5名),进行一场生死大对决,两派之中幸存下来的一方将得到千年的荣禄,并由其支持的一方继承人继承将军的名号。   
甲贺首领甲贺弹正和伊贺首领阿幻,在家康的默许下亲手撕毁了两派在前代服部半藏调停下签订的"不战条约"。两派瞬间走向一场死斗。同时弹正的孙子弦之介,和阿幻的孙女胧,不得不放下婚约,为杀死自己的爱人而战……

代码
Format : Matroska
      File size : 525 MiB
      Duration : 24mn 7s
      Overall bit rate : 3 042 Kbps
      Movie name : Basilisk: The Kouga Ninja Scrolls EP_01 (2005) - Release for HDCLUB
      Encoded date : UTC 2010-06-18 07:05:20
      Writing application : mkvmerge v2.8.0 ('The Tree') built on May  9 2009 18:02:06
      Writing library : libebml v0.7.7 + libmatroska v0.8.1
   Video #1
      ID : 1
      Format : AVC
      Format/Info : Advanced Video Codec
      Format profile : High@L4.1
      Format settings, CABAC : Yes
      Format settings, ReFrames : 7 frames
      Muxing mode : Container profile=Unknown@4.1
      Codec ID : V_MPEG4/ISO/AVC
      Duration : 24mn 5s
      Bit rate : 2 341 Kbps
      Nominal bit rate : 2 404 Kbps
      Width : 1 280 pixels
      Height : 720 pixels
      Display aspect ratio : 16:9
      Frame rate : 23.976 fps
      Resolution : 8 bits
      Colorimetry : 4:2:0
      Scan type : Progressive
      Bits/(Pixel*Frame) : 0.106
      Stream size : 403 MiB (77%)
      Title : Release for HDCLUB
      Writing library : x264 core 94 r1583 7608d73
      Encoding settings : cabac=1 / ref=8 / deblock=1:-2:-1 / analyse=0x3:0x133 / me=umh / subme=9 / psy=1 / psy_rd=1.00:0.00 / mixed_ref=1 / me_range=32 / chroma_me=1 / trellis=2 / 8x8dct=1 / cqm=0 / deadzone=21,11 / fast_pskip=0 / chroma_qp_offset=-2 / threads=12 / sliced_threads=0 / nr=0 / decimate=0 / interlaced=0 / constrained_intra=0 / bframes=8 / b_pyramid=1 / b_adapt=2 / b_bias=0 / direct=3 / weightb=1 / weightp=2 / keyint=250 / keyint_min=25 / scenecut=40 / intra_refresh=0 / rc_lookahead=0 / rc=2pass / mbtree=0 / bitrate=2404 / ratetol=1.0 / qcomp=0.60 / qpmin=10 / qpmax=51 / qpstep=4 / cplxblur=20.0 / qblur=0.5 / vbv_maxrate=50000 / vbv_bufsize=62500 / ip_ratio=1.40 / pb_ratio=1.30 / aq=1:0.80 / nal_hrd=none
      Language : Japanese
   Audio #2
      ID : 2
      Format : AC-3
      Format/Info : Audio Coding 3
      Codec ID : A_AC3
      Duration : 24mn 7s
      Bit rate mode : Constant
      Bit rate : 640 Kbps
      Channel(s) : 2 channels
      Channel positions : L R
      Sampling rate : 48.0 KHz
      Stream size : 110 MiB (21%)
      Title : AC3 2.0 @ 640 kbps
      Language : Japanese


IPB Image

正在读取……

这里是其它用户补充的资源(我也要补充):

暂无补充资源
正在加载,请稍等...

点击查看所有165网友评论

 

(?) [公告]留口水、评论相关规则 | [活动]每日签到 轻松领取电驴经验

    小贴士:
  1. 类似“顶”、“沙发”之类没有营养的文字,对勤劳贡献的楼主来说是令人沮丧的反馈信息。
  2. 提问之前请再仔细看一遍楼主的说明,或许是您遗漏了。
  3. 勿催片。请相信驴友们对分享是富有激情的,如果确有更新版本,您一定能搜索到。
  4. 请勿到处挖坑绊人、招贴广告。既占空间让人厌烦,又没人会搭理,于人于己都无利。
  5. 如果您发现自己的评论不见了,请参考以上4条。