v

您的位置:VeryCD音乐华语音乐

音乐资源事务区


卓依婷 -《猜心2》[WAV]

  • 状态: 精华资源
  • 摘要:
    音乐风格流行
    发行时间1997年
    语言普通话
  • 时间: 2010/08/12 23:00:23 发布 | 2010/09/07 12:25:54 更新
  • 分类: 音乐  华语音乐 

micty

精华资源: 51

全部资源: 54

相关: 分享到新浪微博   转播到腾讯微博   分享到开心网   分享到人人   分享到QQ空间   订阅本资源RSS更新   美味书签  subtitle
该内容尚未提供权利证明,无法提供下载。
专辑中文名猜心2
歌手卓依婷
音乐风格流行
版本[WAV]
发行时间1997年
语言普通话
简介

IPB Image

专辑介绍:

凡是听过依婷的情歌诠释,都会赞不绝口。一个18岁的女孩,到底有何能耐?唱尽了有情人纷扰的感情心声,同时也无尽延伸了有情人扣人心弦的爱情故事…… 展现青春少女的风采,倾听依婷的少女心事,感受花一样的年华。20首精选情歌,诉说你我的心情故事!情深意切的旋律之歌,唱出你我的心事。《猜心》,正如本专辑的名字一样,表达了少心的心情故事,无尽的遐想,就让我们一起领略卓依婷的少女的魅力吧。

专辑图片:

IPB Image

IPB Image



引用

Exact Audio Copy V0.99 prebeta 4 from 23. January 2008

EAC 抓取日志文件从5. 三月 2009, 19:33

卓依婷 / 未知标题

使用驱动器 :PIONEER DVD-RW DVR-116 Adapter: 0 ID: 0

读取模式 : 保护
使用精确流 : 是
废除音频缓冲 : 是
使用 C2 指针 : 否

读取偏移校正 : 0
读取 Lead-In 和 Lead-Out : 否
用静音填充抓取中丢失偏移的采样 : 是
去除首尾静音块 : 否
在 CRC 计算中使用了空样本 : 否
已用接口 : Win NT 及 2000 本地 Win32 接口

所用输出格式 : 内部 WAV 函数
样本格式 : 44.100 Hz;16 Bit;立体声


被抓轨 CD 的 TOC

音轨 | 开始 | 长度 | 起始扇区 | 结尾扇区
--------------------------------------------------
1 | 0:00.00 | 4:16.57 | 0 | 19256
2 | 4:16.57 | 4:36.38 | 19257 | 39994
3 | 8:53.20 | 3:47.32 | 39995 | 57051
4 | 12:40.52 | 3:55.68 | 57052 | 74744
5 | 16:36.45 | 3:53.17 | 74745 | 92236
6 | 20:29.62 | 4:35.08 | 92237 | 112869
7 | 25:04.70 | 5:24.22 | 112870 | 137191
8 | 30:29.17 | 5:15.00 | 137192 | 160816
9 | 35:44.17 | 4:22.50 | 160817 | 180516
10 | 40:06.67 | 4:25.38 | 180517 | 200429
11 | 44:32.30 | 4:48.70 | 200430 | 222099
12 | 49:21.25 | 5:21.27 | 222100 | 246201
13 | 54:42.52 | 4:30.08 | 246202 | 266459
14 | 59:12.60 | 5:00.57 | 266460 | 289016


范围状态及错误

已选择范围

文件名 H:\国语女歌星专辑\卓依婷 -《猜心2》\卓依婷 - 未知标题.wav

峰值电平 98.9 %
范围质量 99.9 %
复制 CRC 7148C2AB
复制成功

没有错误发生

状态报告结尾



专辑曲目

01 桃花岛
02 追缘
03 伙伴
04 女孩的心思你别猜
05 中国人
06 依靠
07 朋友
08 绝口不提爱你
09 真实
10 心情不错
11 芬芳
12 用情
13 独角戏
14 情难枕

正在读取……

这里是其它用户补充的资源(我也要补充):

暂无补充资源
正在加载,请稍等...

点击查看所有20网友评论

 

(?) [公告]留口水、评论相关规则 | [活动]每日签到 轻松领取电驴经验

    小贴士:
  1. 类似“顶”、“沙发”之类没有营养的文字,对勤劳贡献的楼主来说是令人沮丧的反馈信息。
  2. 提问之前请再仔细看一遍楼主的说明,或许是您遗漏了。
  3. 勿催片。请相信驴友们对分享是富有激情的,如果确有更新版本,您一定能搜索到。
  4. 请勿到处挖坑绊人、招贴广告。既占空间让人厌烦,又没人会搭理,于人于己都无利。
  5. 如果您发现自己的评论不见了,请参考以上4条。