v

您的位置:VeryCD音乐华语音乐

音乐资源事务区


卓依婷 -《猜心1》[WAV]

  • 状态: 精华资源
  • 摘要:
    音乐风格流行
    发行时间1997年
    语言普通话
  • 时间: 2010/08/12 22:47:58 发布 | 2010/09/07 13:11:22 更新
  • 分类: 音乐  华语音乐 

micty

精华资源: 51

全部资源: 54

相关: 分享到新浪微博   转播到腾讯微博   分享到开心网   分享到人人   分享到QQ空间   订阅本资源RSS更新   美味书签  subtitle
该内容尚未提供权利证明,无法提供下载。
专辑中文名猜心1
歌手卓依婷
音乐风格流行
版本[WAV]
发行时间1997年
语言普通话
简介

IPB Image

专辑介绍:

凡是听过依婷的情歌诠释,都会赞不绝口。一个18岁的女孩,到底有何能耐?唱尽了有情人纷扰的感情心声,同时也无尽延伸了有情人扣人心弦的爱情故事…… 展现青春少女的风采,倾听依婷的少女心事,感受花一样的年华。20首精选情歌,诉说你我的心情故事!情深意切的旋律之歌,唱出你我的心事。《猜心》,正如本专辑的名字一样,表达了少心的心情故事,无尽的遐想,就让我们一起领略卓依婷的少女的魅力吧。


专辑图片:

IPB Image

IPB Image



引用
Exact Audio Copy V0.99 prebeta 2 from 28. July 2007

EAC 抓取日志文件从3. 八月 2009, 14:06

卓依婷 / 猜心NO.1

使用驱动器 :ATAPI DVD D DH16D3S Adapter: 2 ID: 0

读取模式 : 保护
使用精确流 : 是
废除音频缓冲 : 是
使用 C2 指针 : 否

读取偏移校正 : 0
读取 Lead-In 和 Lead-Out : 否
用静音填充抓取中丢失偏移的采样 : 是
去除首尾静音块 : 否
在 CRC 计算中使用了空样本 : 否
已用接口 : Win NT 及 2000 本地 Win32 接口

所用输出格式 : 内部 WAV 函数
样本格式 : 44.100 Hz;16 Bit;立体声


被抓轨 CD 的 TOC

音轨 | 开始 | 长度 | 起始扇区 | 结尾扇区
--------------------------------------------------
1 | 0:00.00 | 3:26.00 | 0 | 15449
2 | 3:26.00 | 5:21.38 | 15450 | 39562
3 | 8:47.38 | 5:09.50 | 39563 | 62787
4 | 13:57.13 | 5:56.62 | 62788 | 89549
5 | 19:54.00 | 5:01.00 | 89550 | 112124
6 | 24:55.00 | 4:00.63 | 112125 | 130187
7 | 28:55.63 | 4:01.37 | 130188 | 148299
8 | 32:57.25 | 4:29.63 | 148300 | 168537
9 | 37:27.13 | 4:53.37 | 168538 | 190549
10 | 42:20.50 | 4:57.00 | 190550 | 212824
11 | 47:17.50 | 4:40.25 | 212825 | 233849
12 | 51:58.00 | 4:11.38 | 233850 | 252712
13 | 56:09.38 | 4:41.12 | 252713 | 273799
14 | 60:50.50 | 3:53.13 | 273800 | 291287


范围状态及错误

已选择范围

文件名 D:\Backup\我的文档\卓依婷-猜心NO.1\卓依婷 - 猜心NO.1.wav

峰值电平 100.0 %
范围质量 99.9 %
复制 CRC D7427D64
复制成功

没有错误发生

状态报告结尾



专辑曲目

01.鸭子
02.别问我是谁
03.为你
04.心太软
05.破晓
06.第二道彩虹
07.天真
08.浪人情歌
09.消息
10.雪人
11.眼泪
12.柳暗花明
13.为什么春天要迟到
14.朋友的心

正在读取……

这里是其它用户补充的资源(我也要补充):

暂无补充资源
正在加载,请稍等...

点击查看所有17网友评论

 

(?) [公告]留口水、评论相关规则 | [活动]每日签到 轻松领取电驴经验

    小贴士:
  1. 类似“顶”、“沙发”之类没有营养的文字,对勤劳贡献的楼主来说是令人沮丧的反馈信息。
  2. 提问之前请再仔细看一遍楼主的说明,或许是您遗漏了。
  3. 勿催片。请相信驴友们对分享是富有激情的,如果确有更新版本,您一定能搜索到。
  4. 请勿到处挖坑绊人、招贴广告。既占空间让人厌烦,又没人会搭理,于人于己都无利。
  5. 如果您发现自己的评论不见了,请参考以上4条。