v

您的位置:VeryCD综艺纪录片

综艺资源事务区


《2006年FIFA世界杯官方记录片》(The 2006 FIFA World Cup Film - The Grand Finale)[720P]

  • 状态: 精华资源
  • 摘要:
    发行时间2007年
    地区美国
    语言英语
  • 时间: 2010/08/02 14:17:32 发布 | 2010/08/03 01:50:07 更新
  • 分类: 综艺  纪录片 

alaundo

精华资源: 38

全部资源: 43

相关: 分享到新浪微博   转播到腾讯微博   分享到开心网   分享到人人   分享到QQ空间   订阅本资源RSS更新   美味书签  subtitle
该内容尚未提供权利证明,无法提供下载。
中文名2006年FIFA世界杯官方记录片
英文名The 2006 FIFA World Cup Film - The Grand Finale
资源格式720P
发行时间2007年
制作发行索尼
地区美国
语言英语
简介

IPB Image

2006年FIFA世界杯官方记录片,索尼公司一区2007年1月23日发行,112分钟.可变形宽银幕1.78:1。007的扮演者皮尔斯布鲁斯南担任解说。
文件格式H.264,视频尺寸720P,带中文字幕,非常值得珍藏。本片回顾了06年每场比赛的精华!

转自PT http://hdroad.org


代码


      Format : Matroska
      File size : 4.37 GiB
      Duration : 1h 52mn
      Overall bit rate : 5 571 Kbps
      Encoded date : UTC 2007-11-25 06:52:55
      Writing application : mkvmerge v2.1.0 ('Another Place To Fall') built on Aug 19 2007 13:40:07
      Writing library : libebml v0.7.7 + libmatroska v0.8.1
   Video #1
      ID : 1
      Format : AVC
      Format/Info : Advanced Video Codec
      Format profile : High@L5.1
      Format settings, CABAC : Yes
      Format settings, ReFrames : 8 frames
      Muxing mode : Container profile=Unknown@5.1
      Codec ID : V_MPEG4/ISO/AVC
      Duration : 1h 52mn
      Bit rate : 5 076 Kbps
      Nominal bit rate : 5 183 Kbps
      Width : 1 280 pixels
      Height : 720 pixels
      Display aspect ratio : 16:9
      Frame rate : 23.976 fps
      Resolution : 8 bits
      Colorimetry : 4:2:0
      Scan type : Progressive
      Bits/(Pixel*Frame) : 0.230
      Stream size : 3.98 GiB (91%)
      Writing library : x264 core 57 svn-699C
      Encoding settings : cabac=1 / ref=5 / deblock=1:-2:-1 / analyse=0x3:0x113 / me=umh / fpel_cmp=sad / subme=6 / me-prepass=0 / brdo=1 / mixed_ref=1 / me_range=16 / chroma_me=1 / trellis=1 / 8x8dct=1 / cqm=2 / deadzone=21,11 / chroma_qp_offset=0 / threads=3 / nr=0 / decimate=1 / mbaff=0 / bframes=16 / b_pyramid=1 / b_adapt=1 / b_bias=0 / direct=3 / wpredb=1 / bime=1 / keyint=250 / keyint_min=25 / scenecut=40(pre) / rc=2pass / bitrate=5183 / ratetol=1.0 / rceq='blurCplx^(1-qComp)' / qcomp=0.60 / qpmin=10 / qpmax=51 / qpstep=4 / cplxblur=20.0 / qblur=0.5 / ip_ratio=1.40 / pb_ratio=1.30
   Audio #2
      ID : 2
      Format : AC-3
      Format/Info : Audio Coding 3
      Codec ID : A_AC3
      Duration : 1h 52mn
      Bit rate mode : Constant
      Bit rate : 384 Kbps
      Channel(s) : 5 channels
      Channel positions : Front: L C R, Surround: L R
      Sampling rate : 48.0 KHz
      Stream size : 309 MiB (7%)

正在读取……

这里是其它用户补充的资源(我也要补充):

暂无补充资源
正在加载,请稍等...

点击查看所有13网友评论

 

(?) [公告]留口水、评论相关规则 | [活动]每日签到 轻松领取电驴经验

    小贴士:
  1. 类似“顶”、“沙发”之类没有营养的文字,对勤劳贡献的楼主来说是令人沮丧的反馈信息。
  2. 提问之前请再仔细看一遍楼主的说明,或许是您遗漏了。
  3. 勿催片。请相信驴友们对分享是富有激情的,如果确有更新版本,您一定能搜索到。
  4. 请勿到处挖坑绊人、招贴广告。既占空间让人厌烦,又没人会搭理,于人于己都无利。
  5. 如果您发现自己的评论不见了,请参考以上4条。