v

您的位置:VeryCD动漫OVA

动漫资源事务区


《黑岩射手》(Black★Rock Shooter)[繁简] 720P upscaled 不多做说明,纯属个人兴趣制作。[DVDRip]

  • 状态: 精华资源
  • 摘要:
    发行时间2010年7月
    语言日语
  • 时间: 2010/08/01 20:04:04 发布 | 2010/08/03 20:32:45 更新
  • 分类: 动漫  OVA 

n6333373

精华资源: 2

全部资源: 2

相关: 分享到新浪微博   转播到腾讯微博   分享到开心网   分享到人人   分享到QQ空间   订阅本资源RSS更新   美味书签  subtitle
该内容尚未提供权利证明,无法提供下载。
中文名黑岩射手
英文名Black★Rock Shooter
别名ブラック★ロックシューター
资源格式DVDRip
版本[繁简] 720P upscaled 不多做说明,纯属个人兴趣制作。
发行时间2010年7月
地区日本
语言日语
简介

 
IPB Image
 
升上初中的黑衣麻陶,在开学典礼的那一天瞬间就被同班同学小鸟游优美所吸引。
天真烂漫的麻陶,气质成熟的优美。
看似性格相对的两人却在一起度过的时间中逐渐加深了友情。
但升上2年级后两人被分到了不同的班级里,最终导致少女们的心开始产生分歧。
而在同一时间另一个世界里,
眼中寄宿着蓝色火焰的少女Black★Rock Shooter与手持漆黑大镰的少女Dead Master正在展开死斗....

【Staff】

原作:huke
音楽:ryo
监督:吉冈忍
脚本:谷川流・吉冈忍
キャラクターデザイン・作画监督:松尾祐辅
监修:山本寛
アニメーション制作:Ordet
美术监督:袈裟丸絵美
色彩设计:中岛和子(A-1 Pictures)
撮影监督:广冈岳(アステリズム)
音响监督:菊田浩巳(楽音舎)

【Cast】

黑衣麻陶(黒衣 マト):花泽香菜
小鸟游优美(小鸟游 ヨミ):沢城みゆき
由宇美(ユウ):阿澄佳奈

【其他】个人供源。

【v2版本做了些什么】是个「二次编码」的产物,相较於第一次编码,修改了人物线条的粗细。

【v3版本做了些什么】相较於v2,又额外使用了deen()函数,理论上会抹杀掉一些细节,但是我对成品感到满意。

【v2版本压制参数】

代码

   General
      Format : MPEG-4
      Format profile : Base Media
      Codec ID : isom
      File size : 814 MiB
      Duration : 52mn 23s
      Overall bit rate : 2 172 Kbps
      Encoded date : UTC 2010-07-28 08:52:59
      Tagged date : UTC 2010-07-28 08:52:59
   Video #1
      ID : 1
      Format : AVC
      Format/Info : Advanced Video Codec
      Format profile : High@L5.1
      Format settings, CABAC : Yes
      Format settings, ReFrames : 12 frames
      Codec ID : avc1
      Codec ID/Info : Advanced Video Coding
      Duration : 52mn 23s
      Bit rate mode : Variable
      Bit rate : 1 978 Kbps
      Nominal bit rate : 2 000 Kbps
      Maximum bit rate : 17.2 Mbps
      Width : 1 280 pixels
      Height : 720 pixels
      Display aspect ratio : 16:9
      Frame rate mode : Constant
      Frame rate : 23.976 fps
      Resolution : 8 bits
      Colorimetry : 4:2:0
      Scan type : Progressive
      Bits/(Pixel*Frame) : 0.090
      Stream size : 741 MiB (91%)
      Writing library : x264 core 98 r1649 c54c47d
      Encoding settings : cabac=1 / ref=12 / deblock=1:0:0 / analyse=0x3:0x113 / me=umh / subme=10 / psy=1 / psy_rd=1.00:0.00 / mixed_ref=1 / me_range=16 / chroma_me=1 / trellis=2 / 8x8dct=1 / cqm=0 / deadzone=21,11 / fast_pskip=1 / chroma_qp_offset=-2 / threads=6 / sliced_threads=0 / nr=0 / decimate=1 / interlaced=0 / constrained_intra=0 / bframes=3 / b_pyramid=2 / b_adapt=2 / b_bias=0 / direct=3 / weightb=1 / weightp=2 / keyint=250 / keyint_min=25 / scenecut=40 / intra_refresh=0 / rc_lookahead=50 / rc=abr / mbtree=1 / bitrate=2000 / ratetol=1.0 / qcomp=0.60 / qpmin=10 / qpmax=51 / qpstep=4 / ip_ratio=1.40 / aq=1:1.00
      Encoded date : UTC 2010-07-28 05:00:07
      Tagged date : UTC 2010-07-28 08:53:42
   Audio #2
      ID : 2
      Format : AC-3
      Format/Info : Audio Coding 3
      Codec ID : ac-3
      Duration : 52mn 23s
      Bit rate mode : Constant
      Bit rate : 192 Kbps
      Channel(s) : 2 channels
      Channel positions : L R
      Sampling rate : 48.0 KHz
      Resolution : 16 bits
      Stream size : 71.9 MiB (9%)
      Title : Imported with GPAC 0.4.6-DEV (internal rev. 5)
      Encoded date : UTC 2010-07-28 08:53:36
      Tagged date : UTC 2010-07-28 08:53:42

【v3版本压制参数】
代码

   General
      Format : MPEG-4
      Format profile : Base Media
      Codec ID : isom
      File size : 743 MiB
      Duration : 52mn 29s
      Overall bit rate : 1 979 Kbps
      Encoded date : UTC 2010-08-02 12:24:22
      Tagged date : UTC 2010-08-02 12:24:22
   Video #1
      ID : 1
      Format : AVC
      Format/Info : Advanced Video Codec
      Format profile : High@L5.1
      Format settings, CABAC : Yes
      Format settings, ReFrames : 8 frames
      Codec ID : avc1
      Codec ID/Info : Advanced Video Coding
      Duration : 52mn 29s
      Bit rate mode : Variable
      Bit rate : 1 785 Kbps
      Nominal bit rate : 1 800 Kbps
      Maximum bit rate : 18.6 Mbps
      Width : 1 280 pixels
      Height : 720 pixels
      Display aspect ratio : 16:9
      Frame rate mode : Constant
      Frame rate : 23.976 fps
      Resolution : 8 bits
      Colorimetry : 4:2:0
      Scan type : Progressive
      Bits/(Pixel*Frame) : 0.081
      Stream size : 670 MiB (90%)
      Writing library : x264 core 98 r1649 c54c47d
      Encoding settings : cabac=1 / ref=8 / deblock=1:0:0 / analyse=0x3:0x113 / me=umh / subme=10 / psy=1 / psy_rd=1.00:0.00 / mixed_ref=1 / me_range=16 / chroma_me=1 / trellis=2 / 8x8dct=1 / cqm=0 / deadzone=21,11 / fast_pskip=1 / chroma_qp_offset=-2 / threads=6 / sliced_threads=0 / nr=0 / decimate=1 / interlaced=0 / constrained_intra=0 / bframes=3 / b_pyramid=0 / b_adapt=2 / b_bias=0 / direct=3 / weightb=1 / weightp=2 / keyint=250 / keyint_min=25 / scenecut=40 / intra_refresh=0 / rc_lookahead=50 / rc=abr / mbtree=1 / bitrate=1800 / ratetol=1.0 / qcomp=0.60 / qpmin=10 / qpmax=51 / qpstep=4 / ip_ratio=1.40 / aq=1:1.00
      Encoded date : UTC 2010-08-02 08:49:57
      Tagged date : UTC 2010-08-02 12:25:04
   Audio #2
      ID : 2
      Format : AC-3
      Format/Info : Audio Coding 3
      Codec ID : ac-3
      Duration : 52mn 23s
      Bit rate mode : Constant
      Bit rate : 192 Kbps
      Channel(s) : 2 channels
      Channel positions : L R
      Sampling rate : 48.0 KHz
      Resolution : 16 bits
      Stream size : 71.9 MiB (10%)
      Title : Imported with GPAC 0.4.6-DEV (internal rev. 5)
      Encoded date : UTC 2010-07-27 08:25:20
      Tagged date : UTC 2010-08-02 12:25:04

【预览图】
IPB Image
IPB Image

【观看大图请点】
http://uhatt.vcimg.com/201008/5/5119286_1280984538hhjS.jpg
http://uhatt.vcimg.com/201008/5/5119286_1280984534UQQr.jpg

【常驻伺服器】eDonkeyServer No2

下载外掛字幕的童鞋记得要将『影片与字幕的命名为相同』,方可读取。

正在读取……

这里是其它用户补充的资源(我也要补充):

暂无补充资源
正在加载,请稍等...

点击查看所有51网友评论

 

(?) [公告]留口水、评论相关规则 | [活动]每日签到 轻松领取电驴经验

    小贴士:
  1. 类似“顶”、“沙发”之类没有营养的文字,对勤劳贡献的楼主来说是令人沮丧的反馈信息。
  2. 提问之前请再仔细看一遍楼主的说明,或许是您遗漏了。
  3. 勿催片。请相信驴友们对分享是富有激情的,如果确有更新版本,您一定能搜索到。
  4. 请勿到处挖坑绊人、招贴广告。既占空间让人厌烦,又没人会搭理,于人于己都无利。
  5. 如果您发现自己的评论不见了,请参考以上4条。