v

您的位置:VeryCD动漫电视动画

动漫资源事务区


《鲁邦三世 最后的工作》(Lupin III The Last Job)[神奇字幕组][RMVB]

  • 状态: 精华资源
  • 摘要:
    发行时间2010年02月12日
    语言日语
  • 时间: 2010/07/18 18:08:47 发布 | 2010/08/29 18:25:12 更新
  • 分类: 动漫  电视动画 

qa003qa003

精华资源: 37

全部资源: 48

相关: 分享到新浪微博   转播到腾讯微博   分享到开心网   分享到人人   分享到QQ空间   订阅本资源RSS更新   美味书签  subtitle
该内容尚未提供权利证明,无法提供下载。
中文名鲁邦三世 最后的工作
英文名Lupin III The Last Job
别名鲁邦三世,最后的工作,Lupin III The Last Job
资源格式RMVB
版本[神奇字幕组]
发行时间2010年02月12日
地区日本
语言日语
简介

IPB Image

【中文剧名】:《鲁邦三世--the Last Job(最后的工作)》
【播出时间】:2010年2月12日
【集数】:1集
【时长/格式】:1小时33分/RMVB
【字幕】:神奇字幕组(www.sqsub.com)


【介绍】:

继今年破天荒让小学生神探江户川柯南加入战局的TV动画特别篇《鲁邦三世VS名侦探柯南》推出以来,明年度的崭新特别动画版更加劲爆、即将描写资深刑警钱形警部之死!?根据报导,名为《鲁邦三世 the Last Job》的这部TV动画特别篇,不仅将是全系列篇第20部作品,而且还将事件地点搬到近来颇具好莱坞电影话题的纳粹德国领地之内。

【STAFF】
原  作:モンキー?パンチ
监  督:アミノテツロ
脚  本:大川俊道


【CAST】

栗田贯一
小林清志
井上真树夫
増山江威子
纳谷悟朗
平野綾


【文件信息】:


文件查源点我rmvb版
文件查源点我mp4版

该内容尚未提供权利证明,无法提供下载。





引用



IPB Image


代码
General
Complete name                    : D:\CONAN\SQSub\[SQsub][Lupin III][the Last Job][GB][R10]\【神奇字幕组】【鲁邦三世 10年2月特别篇】【the Last Job(最后的工作)】【简体】【R10】.rmvb
Format                           : RealMedia
File size                        : 425 MiB
Duration                         : 1h 33mn
Overall bit rate                 : 633 Kbps
Performer                        : 神奇字幕组

Video
ID                               : 1
Format                           : RealVideo 4
Codec ID                         : RV40
Codec ID/Info                    : Based on AVC (H.264), Real Player 9
Duration                         : 1h 32mn
Bit rate                         : 505 Kbps
Width                            : 704 pixels
Height                           : 396 pixels
Display aspect ratio             : 16/9
Frame rate                       : 23 fps
Resolution                       : 12 bits
Bits/(Pixel*Frame)               : 0.079

Audio
ID                               : 0
Format                           : AAC
Format/Info                      : Advanced Audio Codec
Codec ID                         : raac
Codec ID/Info                    : Real Player 9
Duration                         : 1h 33mn
Bit rate                         : 128 Kbps
Channel(s)                       : 2 channels
Sampling rate                    : 44.1 KHz
Resolution                       : 16 bits

代码
General
Complete name                    : C:\【神奇字幕组】【鲁邦三世_10年2月特别篇】【the_Last_Job(最后的工作)】【简体】【R10】_PSP_368x208.mp4
Format                           : MPEG-4
Format profile                   : Base Media
Codec ID                         : isom
File size                        : 302 MiB
Duration                         : 1h 32mn
Overall bit rate                 : 454 Kbps
Encoded date                     : UTC 2009-06-01 23:48:15
Tagged date                      : UTC 2009-06-01 23:48:15
Writing application              : Lavf52.38.0

Video
ID                               : 1
Format                           : MPEG-4 Visual
Format profile                   : Simple@L1
Format settings, BVOP            : No
Format settings, QPel            : No
Format settings, GMC             : No warppoints
Format settings, Matrix          : Default
Codec ID                         : 20
Duration                         : 1h 32mn
Bit rate mode                    : Variable
Bit rate                         : 384 Kbps
Width                            : 368 pixels
Height                           : 208 pixels
Display aspect ratio             : 16/9
Frame rate mode                  : Constant
Frame rate                       : 15.000 fps
Resolution                       : 24 bits
Colorimetry                      : 4:2:0
Scan type                        : Progressive
Bits/(Pixel*Frame)               : 0.335
Stream size                      : 255 MiB (85%)
Writing library                  : Lavc52.34.0
Encoded date                     : UTC 2009-06-01 23:48:15
Tagged date                      : UTC 2009-06-01 23:48:15

Audio
ID                               : 2
Format                           : AAC
Format/Info                      : Advanced Audio Codec
Format version                   : Version 4
Format profile                   : LC
Format settings, SBR             : No
Codec ID                         : 40
Duration                         : 1h 32mn
Bit rate mode                    : Variable
Bit rate                         : 66.15 Kbps
Channel(s)                       : 2 channels
Channel positions                : L R
Sampling rate                    : 44.1 KHz
Resolution                       : 16 bits
Stream size                      : 44.3 MiB (15%)
Encoded date                     : UTC 2009-06-01 23:48:15
Tagged date                      : UTC 2009-06-01 23:48:15


||||||||||||||||||||||||||||||||||||||||||||||||||||||||||||||||||||||||||||||||||||||||||||||||||||||||||||||||||||||||||||||||||||||||||||||||||||||||||||||||||||||||||||||||||||||||||||||||||
本资源用的是“Xtreme7.2”共享,禁止使用easymule、迅雷、脱兔、vagaa等吸血客户端下载
推荐使用emule或者emule最最受欢迎的MODXtreme,或者选择其他emuleMOD
||||||||||||||||||||||||||||||||||||||||||||||||||||||||||||||||||||||||||||||||||||||||||||||||||||||||||||||||||||||||||||||||||||||||||||||||||||||||||||||||||||||||||||||||||||||||||||||||||

正在读取……

这里是其它用户补充的资源(我也要补充):

暂无补充资源
正在加载,请稍等...

点击查看所有34网友评论

 

(?) [公告]留口水、评论相关规则 | [活动]每日签到 轻松领取电驴经验

    小贴士:
  1. 类似“顶”、“沙发”之类没有营养的文字,对勤劳贡献的楼主来说是令人沮丧的反馈信息。
  2. 提问之前请再仔细看一遍楼主的说明,或许是您遗漏了。
  3. 勿催片。请相信驴友们对分享是富有激情的,如果确有更新版本,您一定能搜索到。
  4. 请勿到处挖坑绊人、招贴广告。既占空间让人厌烦,又没人会搭理,于人于己都无利。
  5. 如果您发现自己的评论不见了,请参考以上4条。