v

您的位置:VeryCD动漫电视动画

动漫资源事务区


《乐比悠悠第2季》(RUBI2)[普通话][中文字幕][52集全][MP4]

  • 状态: 精华资源
  • 摘要:
    发行时间2010年06月
    语言普通话
  • 时间: 2010/06/24 13:04:25 发布 | 2010/06/25 15:43:33 更新
  • 分类: 动漫  电视动画 

sjworld

精华资源: 1

全部资源: 1

相关: 分享到新浪微博   转播到腾讯微博   分享到开心网   分享到人人   分享到QQ空间   订阅本资源RSS更新   美味书签  subtitle
该内容尚未提供权利证明,无法提供下载。
中文名乐比悠悠第2季
英文名RUBI2
资源格式MP4
版本[普通话][中文字幕][52集全]
发行时间2010年06月
导演虞燕萍
地区大陆
语言普通话
简介

IPB Image
【首播时间】2010年6月
【字幕制作】内嵌中文
【格式】MP4

【内容介绍】
中南卡通公司制作的五十二集系列动画片《乐比悠悠》第二部,依然秉承了第一部的高投入、高标准,更加的深化了教育与娱乐的结合。是一部更加可爱有趣的3D动画。《乐比悠悠》的故事,更加的深化了每一个可爱角色的表现,在演绎故事情节的同时,赋予了他们独特的性格特点。让这些小可爱们如同从画面中跳出一般,与小朋友们一起玩耍,一起成长。

Video #1
ID : 1
Format : AVC
Format/Info : Advanced Video Codec
Format profile : High@L4.1
Format settings, CABAC : Yes
Format settings, ReFrames : 4 frames
Codec ID : avc1
Codec ID/Info : Advanced Video Coding
Duration : 6mn 58s
Bit rate mode : Variable
Bit rate : 489 Kbps
Nominal bit rate : 500 Kbps
Maximum bit rate : 1 101 Kbps
Width : 592 pixels
Height : 448 pixels
Display aspect ratio : 4:3
Frame rate mode : Constant
Frame rate : 25.000 fps
Resolution : 24 bits
Colorimetry : 4:2:0
Scan type : Progressive
Bits/(Pixel*Frame) : 0.074
Stream size : 24.9 MiB (88%)
Writing library : x264 core 65 r1028M 83baa7f
Encoding settings : cabac=1 / ref=4 / deblock=1:-2:-1 / analyse=0x3:0x133 / me=umh / subme=9 / psy_rd=1.0:1.0 / mixed_ref=1 / me_range=16 / chroma_me=1 / trellis=1 / 8x8dct=1 / cqm=0 / deadzone=21,11 / chroma_qp_offset=-4 / threads=12 / nr=0 / decimate=1 / mbaff=0 / bframes=0 / keyint=200 / keyint_min=25 / scenecut=40(pre) / rc=2pass / bitrate=500 / ratetol=1.0 / qcomp=0.60 / qpmin=10 / qpmax=51 / qpstep=4 / cplxblur=20.0 / qblur=0.5 / ip_ratio=1.40 / aq=1:1.00 / cabac=1 / ref=4 / deblock=1:-2:-1 / analyse=0x3:0x133 / me=umh / subme=9 / psy_rd=1.0:1.0 / mixed_ref=1 / me_range=16 / chroma_me=1 / trellis=1 / 8x8dct=1 / cqm=0 / deadzone=21,11 / chroma_qp_offset=-4 / threads=12 / nr=0 / decimate=1 / mbaff=0 / bframes=0 / keyint=200 / keyint_min=25 / scenecut=40(pre) / rc=2pass / bitrate=500 / ratetol=1.0 / qcomp=0.60 / qpmin=10 / qpmax=51 / qpstep=4 / cplxblur=20.0 / qblur=0.5 / ip_ratio=1.40 / aq=1:1.00
Encoded date : UTC 2010-05-28 04:08:33
Tagged date : UTC 2010-06-22 07:42:32
colour_primaries : BT.601-6 525, BT.1358 525, BT.1700 NTSC, SMPTE 170M
transfer_characteristics : BT.709-5, BT.1361
matrix_coefficients : BT.601-6 525, BT.1358 525, BT.1700 NTSC, SMPTE 170M
Audio #2
ID : 2
Format : AAC
Format/Info : Advanced Audio Codec
Format version : Version 4
Format profile : LC
Format settings, SBR : No
Codec ID : 40
Duration : 6mn 58s
Bit rate mode : Variable
Bit rate : 64.2 Kbps
Maximum bit rate : 77.1 Kbps
Channel(s) : 2 channels
Channel positions : L R
Sampling rate : 48.0 KHz
Resolution : 16 bits
Stream size : 3.20 MiB (11%)
Encoded date : UTC 2010-06-22 07:42:29
Tagged date : UTC 2010-06-22 07:42:32
IPB ImageIPB ImageIPB ImageIPB Image

正在读取……

这里是其它用户补充的资源(我也要补充):

暂无补充资源
正在加载,请稍等...

点击查看所有21网友评论

 

(?) [公告]留口水、评论相关规则 | [活动]每日签到 轻松领取电驴经验

    小贴士:
  1. 类似“顶”、“沙发”之类没有营养的文字,对勤劳贡献的楼主来说是令人沮丧的反馈信息。
  2. 提问之前请再仔细看一遍楼主的说明,或许是您遗漏了。
  3. 勿催片。请相信驴友们对分享是富有激情的,如果确有更新版本,您一定能搜索到。
  4. 请勿到处挖坑绊人、招贴广告。既占空间让人厌烦,又没人会搭理,于人于己都无利。
  5. 如果您发现自己的评论不见了,请参考以上4条。