v

您的位置:VeryCD综艺纪录片

综艺资源事务区


《国家地理频道 科学新发现 神秘的烟火世界》(National Geographic Naked Science Secret World of Fireworks)[720P]

  • 状态: 精华资源
  • 摘要:
    发行时间2009年
    地区美国
    语言英语
  • 时间: 2010/06/09 14:05:28 发布 | 2010/06/11 17:55:04 更新
  • 分类: 综艺  纪录片 

life_is_good

精华资源: 6571

全部资源: 7301

相关: 分享到新浪微博   转播到腾讯微博   分享到开心网   分享到人人   分享到QQ空间   订阅本资源RSS更新   美味书签  subtitle
该内容尚未提供权利证明,无法提供下载。
中文名国家地理频道 科学新发现 神秘的烟火世界
英文名National Geographic Naked Science Secret World of Fireworks
资源格式720P
发行时间2009年
制作发行National Geographic
地区美国
语言英语
简介

IPB Image

本片带领观众走进烟火技术中的神秘配方和神秘技巧。(文:life_is_good@YDY)

Secret World of Fireworks explores the closely held secrets, recipes, and techniques from the world of pyrotechnic showmen. National Geographic takes a behind the scenes look into this exclusive world with unique access from Zambelli Internationale of New Castle, Pennsylvania - Americas First Family of Fireworks - along with rocket scientists and chemists from Los Alamos, New Mexico.

代码
File size: 1.09 GiB
Duration: 46mn 56s
Overall bit rate: 3,330 Kbps
Video Video Format: AVC
Video Format profile: High@L4.1
Video Format settings, CABAC: Yes
Video Format settings, ReFrames: 5 frames
Video Muxing mode: Container profile=Unknown@4.1
Video Codec ID: V_MPEG4/ISO/AVC
Video Duration: 46 mins
Video Bit rate: 2,880 Kbps
Video Nominal bit rate: 2,947 Kbps
Video Width: 1,280 pixels
Video Height: 720 pixels
Video Display aspect ratio: 16:9
Video Frame rate: 25.000 fps
Video Resolution: 8 bits
Video Colorimetry: 4:2:0
Video Scan type: Progressive
Video Bits/(Pixel*Frame): 0.125
Video Stream size: 967 MiB (86%)
Video Writing library: x264 core 96 r1613 81e75e9
Audio Format: AC-3
Audio Codec ID: A_AC3
Audio Duration: 46 mins
Audio Bit rate mode: Constant
Audio Bit rate: 384 Kbps
Audio Channel(s): 6 channels
Audio Channel positions: Front: L C R, Side: L R, LFE
Audio Sampling rate: 48.0 KHz
Audio Stream size: 129 MiB (12%)
Audio Language: English
Encoded by: OneDDL

IPB Image
IPB Image
IPB Image
IPB Image
IPB Image
IPB Image

正在读取……

这里是其它用户补充的资源(我也要补充):

暂无补充资源
正在加载,请稍等...

点击查看所有11网友评论

 

(?) [公告]留口水、评论相关规则 | [活动]每日签到 轻松领取电驴经验

    小贴士:
  1. 类似“顶”、“沙发”之类没有营养的文字,对勤劳贡献的楼主来说是令人沮丧的反馈信息。
  2. 提问之前请再仔细看一遍楼主的说明,或许是您遗漏了。
  3. 勿催片。请相信驴友们对分享是富有激情的,如果确有更新版本,您一定能搜索到。
  4. 请勿到处挖坑绊人、招贴广告。既占空间让人厌烦,又没人会搭理,于人于己都无利。
  5. 如果您发现自己的评论不见了,请参考以上4条。