v

您的位置:VeryCD综艺纪录片

综艺资源事务区


《国家地理频道 袋鼠混乱》(National Geographic Kangaroo Kaos)[720P]

  • 状态: 精华资源
  • 摘要:
    发行时间2009年
    地区美国
    语言英语
  • 时间: 2010/06/02 16:53:14 发布 | 2010/06/04 15:11:23 更新
  • 分类: 综艺  纪录片 

life_is_good

精华资源: 6571

全部资源: 7301

相关: 分享到新浪微博   转播到腾讯微博   分享到开心网   分享到人人   分享到QQ空间   订阅本资源RSS更新   美味书签  subtitle
该内容尚未提供权利证明,无法提供下载。
中文名国家地理频道 袋鼠混乱
英文名National Geographic Kangaroo Kaos
资源格式720P
发行时间2009年
制作发行National Geographic
地区美国
语言英语
简介

IPB Image

袋鼠是澳大利亚的国家象征之一,在货币、旗帜和纪念品上随处可见,然而,袋鼠也有其阴暗的一面。(文:life_is_good@YDY)

Kangaroos aren't just adorable icons that emblazon our currency, flags and souvenirs...

Australia's national mascot has a dark side. The adorable icon that emblazons countless currency, flags and souvenirs may look like a benign being as it reclines in the wild, waiting for unsuspecting tourists to take its picture, but beneath the surface it's a different story. Kangaroos are changing - they are coming to town, and they are causing chaos.

代码
Complete name National.Geographic.Kangaroo.Kaos.720p.HDTV.x264-SomeTV.mkv
Format : Matroska
File size : 1.09 GiB
Duration : 47mn 10s
Overall bit rate : 3 317 Kbps
Encoded date : UTC 2010-05-03 18:10:10
Writing application : mkvmerge v3.3.0 ('Language') built on Mar 24 2010 14:59:24
Writing library : libebml v0.8.0 + libmatroska v0.9.0

Video
ID : 1
Format : AVC
Format/Info : Advanced Video Codec
Format profile : High@L4.1
Format settings, CABAC : Yes
Format settings, ReFrames : 4 frames
Muxing mode : Container profile=Unknown@4.1
Codec ID : V_MPEG4/ISO/AVC
Duration : 47mn 10s
Bit rate : 3 058 Kbps
Width : 1 280 pixels
Height : 720 pixels
Display aspect ratio : 16:9
Frame rate : 25.000 fps
Resolution : 8 bits
Colorimetry : 4:2:0
Scan type : Progressive
Bits/(Pixel*Frame) : 0.133
Stream size : 1 010 MiB (90%)
Writing library : x264 core 93 r1542 5b86182
Encoding settings : cabac=1 / ref=3 / deblock=1:0:0 / analyse=0x3:0x113 / me=umh / subme=6 / psy=1 / psy_rd=1.00:0.00 / mixed_ref=1 / me_range=16 / chroma_me=1 / trellis=1 / 8x8dct=1 / cqm=0 / deadzone=21,11 / fast_pskip=1 / chroma_qp_offset=-2 / threads=3 / sliced_threads=0 / nr=0 / decimate=1 / interlaced=0 / constrained_intra=0 / bframes=3 / b_pyramid=2 / b_adapt=1 / b_bias=0 / direct=1 / wpredb=1 / wpredp=2 / keyint=250 / keyint_min=25 / scenecut=40 / intra_refresh=0 / rc_lookahead=30 / rc=2pass / mbtree=1 / bitrate=3058 / ratetol=1.0 / qcomp=0.60 / qpmin=10 / qpmax=51 / qpstep=4 / cplxblur=20.0 / qblur=0.5 / ip_ratio=1.40 / aq=1:1.00

Audio
ID : 2
Format : MPEG Audio
Format version : Version 1
Format profile : Layer 2
Codec ID : A_MPEG/L2
Codec ID/Hint : MP2
Duration : 47mn 10s
Bit rate mode : Constant
Bit rate : 256 Kbps
Channel(s) : 2 channels
Sampling rate : 48.0 KHz
Video delay : 17ms
Stream size : 86.4 MiB (8%)
Title : English
Language : English

正在读取……

这里是其它用户补充的资源(我也要补充):

暂无补充资源
正在加载,请稍等...

点击查看所有15网友评论

 

(?) [公告]留口水、评论相关规则 | [活动]每日签到 轻松领取电驴经验

    小贴士:
  1. 类似“顶”、“沙发”之类没有营养的文字,对勤劳贡献的楼主来说是令人沮丧的反馈信息。
  2. 提问之前请再仔细看一遍楼主的说明,或许是您遗漏了。
  3. 勿催片。请相信驴友们对分享是富有激情的,如果确有更新版本,您一定能搜索到。
  4. 请勿到处挖坑绊人、招贴广告。既占空间让人厌烦,又没人会搭理,于人于己都无利。
  5. 如果您发现自己的评论不见了,请参考以上4条。