v

您的位置:VeryCD综艺纪录片

综艺资源事务区


《国家地理频道 魔鬼圣经》(National Geographic Devil's Bible)[HDTV]

  • 状态: 精华资源
  • 摘要:
    发行时间2009年
    地区美国
    语言英语
  • 时间: 2010/06/02 16:39:52 发布 | 2010/06/04 15:11:06 更新
  • 分类: 综艺  纪录片 

life_is_good

精华资源: 6571

全部资源: 7301

相关: 分享到新浪微博   转播到腾讯微博   分享到开心网   分享到人人   分享到QQ空间   订阅本资源RSS更新   美味书签  subtitle
该内容尚未提供权利证明,无法提供下载。
中文名国家地理频道 魔鬼圣经
英文名National Geographic Devil's Bible
资源格式HDTV
发行时间2009年
制作发行National Geographic
地区美国
语言英语
简介

IPB Image

 魔鬼圣经(Codex gigas),本意为"巨大的密簿" 世界上现存最宏大的中世纪手抄本. 据传说在十三世纪时由波西米亚(现捷克)Podlazice修道院的一个僧侣所撰, 现存于瑞典斯德哥尔摩的瑞典国家博物馆(. 书底精心绘制了一幅巨大的撒旦Satan像,给人无尽遐想. 再围绕着此书的诸多传说, 这本书又被讹传为"魔鬼圣经(Devil bible)". 实际上,该书除了圣经之外,还抄录了当时的药方,咒语,常识和迷信,是一部百科全书性质的手稿.
  关于此书最经典的传说是: 该书由一个被执行死刑的僧侣为获得缓刑许诺在一夜之内铸就修道院的荣耀. 而这个遥不可及的任务迫使他在破晓前与魔鬼撒旦签下誓约,使该书成为了撒旦的代言.
  该书辗转的几百年中曾数次的避过了战乱与火灾而完好无损.
  根据国家地理频道的纪录片(2009年), 对该书最新一次研究表明, 该书确实出自一人之手,也非某秘密团队所制.根据作者对撒旦像的笔触甚至可以看出作者并非一个专业的书记员和画师,而是一个狂热的业余爱好者.此书工程量的浩紩据专家推算,作者即使在完美状态下马不停蹄的工作,也需要10余年才能完工.
  而作者做该书的动机也被重新审视. 由于书中曾屡次题及赎罪等字眼,先人尝误解作者是一个犯人.而他们最关键的误解则在于对于拉丁文Herman inclusus的误读.他们认为这是中世纪的一种用墙壁将人挤压至死的酷刑.而最新的研究则表明这一部书若由死刑犯来编纂从客观上是不现实的.因此专家认为Herman inclusus是作者断绝尘缘的笔名和对原罪的自我救赎,而书中的satan像紧邻着天国的乌托邦,则表明了作者对世事的个人认识.

代码
Complete name :National.Geographic.Devils.Bible.HDTV.XviD-PVR.avi
Format : AVI
Format/Info : Audio Video Interleave
File size : 348 MiB
Duration : 47mn 17s
Overall bit rate : 1 030 Kbps
Writing application : VirtualDubMod 1.5.10.2 (build 2540/release)
Writing library : VirtualDubMod build 2540/release

Video
ID : 0
Format : MPEG-4 Visual
Format profile : Advanced Simple@L5
Format settings, BVOP : Yes
Format settings, QPel : No
Format settings, GMC : No warppoints
Format settings, Matrix : Default (H.263)
Codec ID : XVID
Codec ID/Hint : XviD
Duration : 47mn 17s
Bit rate : 893 Kbps
Width : 608 pixels
Height : 336 pixels
Display aspect ratio : 16:9
Frame rate : 25.000 fps
Resolution : 8 bits
Colorimetry : 4:2:0
Scan type : Progressive
Bits/(Pixel*Frame) : 0.175
Stream size : 302 MiB (87%)
Writing library : XviD 1.2.1 (UTC 2008-12-04)

Audio
ID : 1
Format : MPEG Audio
Format version : Version 1
Format profile : Layer 3
Mode : Joint stereo
Format_Settings_ModeExtension : MS Stereo
Codec ID : 55
Codec ID/Hint : MP3
Duration : 47mn 17s
Bit rate mode : Variable
Bit rate : 124 Kbps
Nominal bit rate : 130 Kbps
Channel(s) : 2 channels
Sampling rate : 48.0 KHz
Stream size : 42.0 MiB (12%)
Alignment : Aligned on interleaves
Interleave, duration : 24 ms (0.60 video frame)
Interleave, preload duration : 547 ms
Writing library : LAME3.98r
Encoding settings : -m j -V 4 -q 2 -lowpass 17 --abr 130

正在读取……

这里是其它用户补充的资源(我也要补充):

暂无补充资源
正在加载,请稍等...

点击查看所有16网友评论

 

(?) [公告]留口水、评论相关规则 | [活动]每日签到 轻松领取电驴经验

    小贴士:
  1. 类似“顶”、“沙发”之类没有营养的文字,对勤劳贡献的楼主来说是令人沮丧的反馈信息。
  2. 提问之前请再仔细看一遍楼主的说明,或许是您遗漏了。
  3. 勿催片。请相信驴友们对分享是富有激情的,如果确有更新版本,您一定能搜索到。
  4. 请勿到处挖坑绊人、招贴广告。既占空间让人厌烦,又没人会搭理,于人于己都无利。
  5. 如果您发现自己的评论不见了,请参考以上4条。