v

您的位置:VeryCD综艺纪录片

综艺资源事务区


《国家地理频道 自然的守护者》(National Geographic Guardians of Nature)更新意大利篇[PDTV][TVRip]

  • 状态: 精华资源
  • 摘要:
    发行时间2009年
    地区美国
    语言英语
  • 时间: 2010/05/29 11:04:06 发布 | 2011/01/28 22:48:20 更新
  • 分类: 综艺  纪录片 

life_is_good

精华资源: 6571

全部资源: 7301

相关: 分享到新浪微博   转播到腾讯微博   分享到开心网   分享到人人   分享到QQ空间   订阅本资源RSS更新   美味书签  subtitle
该内容尚未提供权利证明,无法提供下载。
中文名国家地理频道 自然的守护者
英文名National Geographic Guardians of Nature
资源格式TVRip
版本更新意大利篇[PDTV]
发行时间2009年
制作发行National Geographic
地区美国
语言英语
简介

IPB Image

本系列纪录片介绍了法国本土以及它在世界各地的属地的美丽自然风景。(文:life_is_good@YDY)

This series of documentaries is dedicated to discovering the magnificent scenery of mainland France and its territories throughout the world. These regions are remarkable for their natural wealth and beauty, and for the man made structures that have been established to protect them. Reserves, national parks, mangroves, islands, marshlands and coral reefs are all examples of how man and nature have carved out and shaped these jewels of nature.

IPB Image

IPB Image

http://natgeotv.com/asia/guardians-of-nature/about

代码
     Complete name :National.Geographic.Wild.Guardians.Of.Nature.Guyana.PDTV.XviD-NANO.avi
    Format : AVI
    Format/Info : Audio Video Interleave
    File size : 350 MiB
    Duration : 46mn 38s
    Overall bit rate : 1 048 Kbps
    Writing application : VirtualDubMod 1.5.10.2 (build 2540/release)
    Writing library : VirtualDubMod build 2540/release

    Video
    ID : 0
    Format : MPEG-4 Visual
    Format profile : Simple@L3
    Format settings, BVOP : Yes
    Format settings, QPel : No
    Format settings, GMC : No warppoints
    Format settings, Matrix : Default (MPEG)
    Muxing mode : Packed bitstream
    Codec ID : XVID
    Codec ID/Hint : XviD
    Duration : 46mn 38s
    Bit rate : 901 Kbps
    Width : 512 pixels
    Height : 288 pixels
    Display aspect ratio : 16:9
    Frame rate : 25.000 fps
    Resolution : 8 bits
    Colorimetry : 4:2:0
    Scan type : Progressive
    Bits/(Pixel*Frame) : 0.244
    Stream size : 301 MiB (86%)
    Writing library : XviD 1.0.3 (UTC 2004-12-20)

    Audio
    ID : 1
    Format : MPEG Audio
    Format version : Version 1
    Format profile : Layer 3
    Mode : Joint stereo
    Format_Settings_ModeExtension : MS Stereo
    Codec ID : 55
    Codec ID/Hint : MP3
    Duration : 46mn 38s
    Bit rate mode : Variable
    Bit rate : 134 Kbps
    Minimum bit rate : 32.0 Kbps
    Channel(s) : 2 channels
    Sampling rate : 48.0 KHz
    Stream size : 44.7 MiB (13%)
    Alignment : Aligned on interleaves
    Interleave, duration : 24 ms (0.60 video frame)
    Interleave, preload duration : 478 ms
    Writing library : LAME3.98r
    Encoding settings : -m j -V 5 -q 0 -lowpass 16.5 --vbr-new -b 32

正在读取……

这里是其它用户补充的资源(我也要补充):

暂无补充资源
正在加载,请稍等...

点击查看所有15网友评论

 

(?) [公告]留口水、评论相关规则 | [活动]每日签到 轻松领取电驴经验

    小贴士:
  1. 类似“顶”、“沙发”之类没有营养的文字,对勤劳贡献的楼主来说是令人沮丧的反馈信息。
  2. 提问之前请再仔细看一遍楼主的说明,或许是您遗漏了。
  3. 勿催片。请相信驴友们对分享是富有激情的,如果确有更新版本,您一定能搜索到。
  4. 请勿到处挖坑绊人、招贴广告。既占空间让人厌烦,又没人会搭理,于人于己都无利。
  5. 如果您发现自己的评论不见了,请参考以上4条。