v

您的位置:VeryCD动漫剧场动画

动漫资源事务区


《EVA新剧场版:破》(Evangelion 2.22 You Can (Not) Advance)[D-RAWS][J2RAW][1080p][BDRip]

  • 状态: 精华资源
  • 摘要:
    发行时间2010年
    语言日语
  • 时间: 2010/05/26 09:42:40 发布 | 2010/05/26 09:44:02 更新
  • 分类: 动漫  剧场动画 

csbeyond

精华资源: 179

全部资源: 180

相关: 分享到新浪微博   转播到腾讯微博   分享到开心网   分享到人人   分享到QQ空间   订阅本资源RSS更新   美味书签  subtitle
该内容尚未提供权利证明,无法提供下载。
中文名EVA新剧场版:破
英文名Evangelion 2.22 You Can (Not) Advance
资源格式BDRip
版本[D-RAWS][J2RAW][1080p]
发行时间2010年
地区日本
语言日语
简介

IPB Image
【捏他】第一版BDrip 先发,怕大家下了坏档就加了CRC 大家从别处下的这个版本,不用改名,欢迎帮忙分流

【首播时间】 2010年5月新BD
【格式】[D-RAWS][J2RAW][1080p][H.264 AAC 2ch+5.1ch]
【字幕】 暂无



【STORY】
  新世纪福音战士新剧场版:破《新世纪福音战士新剧场版:破》(日语:ヱヴァンゲリヲン新剧场版:破)是2009年重新制作的Evangelion动画电影。 这是《新世纪福音战士新剧场版》系列的第二部,英文版标题是「EVANGELION:2.0 YOU CAN (NOT) ADVANCE」。


概要
  2009年2月20日,日本动画制作公司Khara在新剧场版的官方网站上公布,《新世纪福音战士新剧场版:破》将在2009年6月27日公映。   2009年6月27日 Evangelion剧场版:破(既2.0) 首映上映十天观影人数已破100万人次,票房总收入也已超过15亿日元(约合人民币1亿)。观影人数与07年9月公映的前作《新世纪福音战士新剧场版:序》同期相比,增长了2倍以上。(今后将继续更新.....)香港上映以及发售日期:   北美上映以及发售日期:2009年12月3日


【STAFF】
总监督・原作・编剧:庵野秀明
监督:摩砂雪、鹤卷和哉
人物设定:贞本义行
机械设定:山下いくと
作画监督:铃木俊二、本田雄、松原秀典、奥田淳
特技监督:增尾昭一
副监督:中山胜一、小松田大全
色彩设计:菊地和子(Wish)
美术监督:加藤浩(ととにゃん)、串田达也(美峰)
CGI监督:鬼冢大辅、小林浩康
摄影监督:福士享(T2 Studio)
剪辑:奥田浩史
音乐:鹭巣诗郎
Studio Khara
共同配给:KlockWorx、Khara
宣传:Khara


代码
General

Complete name                    : G:\emule0.49c-Xtreme7.2\Incoming\[D-RAWS] Evangelion 2.22 You Can (Not) Advance (BD 1920x1080 H.264 AAC 2ch+5.1ch) [EFD22DA6].mp4

Format                           : MPEG-4

Format profile                   : Base Media

Codec ID                         : isom

File size                        : 3.88 GiB

Duration                         : 1h 52mn

Overall bit rate                 : 4 953 Kbps

Encoded date                     : UTC 2010-05-24 15:51:02

Tagged date                      : UTC 2010-05-24 15:51:02

Writing application              : Yamb 2.1.0.0 [http://yamb.unite-video.com]



Video

Format                           : AVC

Format/Info                      : Advanced Video Codec

Format profile                   : High@L4.1

Format settings, CABAC           : Yes

Format settings, ReFrames        : 4 frames

Codec ID                         : avc1

Duration                         : 1h 52mn

Bit rate mode                    : Variable

Bit rate                         : 3 546 Kbps

Maximum bit rate                 : 38.2 Mbps

Width                            : 1 920 pixels

Height                           : 1 080 pixels

Display aspect ratio             : 16/9

Frame rate mode                  : Constant

Frame rate                       : 23.976 fps

Resolution                       : 24 bits

Colorimetry                      : 4:2:0

Scan type                        : Progressive

Bits/(Pixel*Frame)               : 0.071

Stream size                      : 2.78 GiB (72%)

Writing library                  : x264 core 84 r1416 fcf70c2

Encoding settings                : cabac=1 / ref=4 / deblock=1:0:0 / analyse=0x3:0x113 / me=umh / subme=10 / psy=1 / psy_rd=0.7:0.2 / mixed_ref=1 / me_range=32 / chroma_me=1 / trellis=2 / 8x8dct=1 / cqm=0 / deadzone=21,11 / fast_pskip=1 / chroma_qp_offset=-3 / threads=9 / sliced_threads=0 / nr=0 / decimate=1 / mbaff=0 / constrained_intra=0 / bframes=2 / b_pyramid=2 / b_adapt=1 / b_bias=0 / direct=3 / wpredb=1 / wpredp=2 / keyint=250 / keyint_min=1 / scenecut=40 / intra_refresh=0 / rc_lookahead=40 / rc=crf / mbtree=1 / crf=17.0 / qcomp=0.60 / qpmin=10 / qpmax=51 / qpstep=10 / ip_ratio=1.40 / aq=1:1.00

Encoded date                     : UTC 2010-05-24 05:31:36

Tagged date                      : UTC 2010-05-24 15:55:14



Audio #1

Format                           : AAC

Format/Info                      : Advanced Audio Codec

Format version                   : Version 4

Format profile                   : LC

Format settings, SBR             : No

Codec ID                         : 40

Duration                         : 1h 52mn

Bit rate mode                    : Variable

Bit rate                         : 402 Kbps

Maximum bit rate                 : 465 Kbps

Channel(s)                       : 2 channels

Channel positions                : L R

Sampling rate                    : 48.0 KHz

Resolution                       : 16 bits

Stream size                      : 322 MiB (8%)

Title                            : 1

Encoded date                     : UTC 2010-05-24 15:53:30

Tagged date                      : UTC 2010-05-24 15:55:14



Audio #2

Format                           : AAC

Format/Info                      : Advanced Audio Codec

Format version                   : Version 4

Format profile                   : LC

Format settings, SBR             : No

Codec ID                         : 40

Duration                         : 1h 52mn

Bit rate mode                    : Variable

Bit rate                         : 999 Kbps

Maximum bit rate                 : 1 164 Kbps

Channel(s)                       : 6 channels

Channel positions                : Front: L C R, Rear: L R, LFE

Sampling rate                    : 48.0 KHz

Resolution                       : 16 bits

Stream size                      : 801 MiB (20%)

Title                            : 2

Encoded date                     : UTC 2010-05-24 15:53:54

Tagged date                      : UTC 2010-05-24 15:55:14




         : G:\emule0.49c-Xtreme7.2\Incoming\[D-RAWS] Evangelion 2.22 You Can (Not) Advance (BD 1920x1080 H.264 AAC 2ch+5.1ch) [EFD22DA6].mp4

Format                           : MPEG-4

Format profile                   : Base Media

Codec ID                         : isom

File size                        : 3.88 GiB

Duration                         : 1h 52mn

Overall bit rate                 : 4 953 Kbps

Encoded date                     : UTC 2010-05-24 15:51:02

Tagged date                      : UTC 2010-05-24 15:51:02

Writing application              : Yamb 2.1.0.0 [http://yamb.unite-video.com]



Video

Format                           : AVC

Format/Info                      : Advanced Video Codec

Format profile                   : High@L4.1

Format settings, CABAC           : Yes

Format settings, ReFrames        : 4 frames

Codec ID                         : avc1

Duration                         : 1h 52mn

Bit rate mode                    : Variable

Bit rate                         : 3 546 Kbps

Maximum bit rate                 : 38.2 Mbps

Width                            : 1 920 pixels

Height                           : 1 080 pixels

Display aspect ratio             : 16/9

Frame rate mode                  : Constant

Frame rate                       : 23.976 fps

Resolution                       : 24 bits

Colorimetry                      : 4:2:0

Scan type                        : Progressive

Bits/(Pixel*Frame)               : 0.071

Stream size                      : 2.78 GiB (72%)

Writing library                  : x264 core 84 r1416 fcf70c2

Encoding settings                : cabac=1 / ref=4 / deblock=1:0:0 / analyse=0x3:0x113 / me=umh / subme=10 / psy=1 / psy_rd=0.7:0.2 / mixed_ref=1 / me_range=32 / chroma_me=1 / trellis=2 / 8x8dct=1 / cqm=0 / deadzone=21,11 / fast_pskip=1 / chroma_qp_offset=-3 / threads=9 / sliced_threads=0 / nr=0 / decimate=1 / mbaff=0 / constrained_intra=0 / bframes=2 / b_pyramid=2 / b_adapt=1 / b_bias=0 / direct=3 / wpredb=1 / wpredp=2 / keyint=250 / keyint_min=1 / scenecut=40 / intra_refresh=0 / rc_lookahead=40 / rc=crf / mbtree=1 / crf=17.0 / qcomp=0.60 / qpmin=10 / qpmax=51 / qpstep=10 / ip_ratio=1.40 / aq=1:1.00

Encoded date                     : UTC 2010-05-24 05:31:36

Tagged date                      : UTC 2010-05-24 15:55:14



Audio #1

Format                           : AAC

Format/Info                      : Advanced Audio Codec

Format version                   : Version 4

Format profile                   : LC

Format settings, SBR             : No

Codec ID                         : 40

Duration                         : 1h 52mn

Bit rate mode                    : Variable

Bit rate                         : 402 Kbps

Maximum bit rate                 : 465 Kbps

Channel(s)                       : 2 channels

Channel positions                : L R

Sampling rate                    : 48.0 KHz

Resolution                       : 16 bits

Stream size                      : 322 MiB (8%)

Title                            : 1

Encoded date                     : UTC 2010-05-24 15:53:30

Tagged date                      : UTC 2010-05-24 15:55:14



Audio #2

Format                           : AAC

Format/Info                      : Advanced Audio Codec

Format version                   : Version 4

Format profile                   : LC

Format settings, SBR             : No

Codec ID                         : 40

Duration                         : 1h 52mn

Bit rate mode                    : Variable

Bit rate                         : 999 Kbps

Maximum bit rate                 : 1 164 Kbps

Channel(s)                       : 6 channels

Channel positions                : Front: L C R, Rear: L R, LFE

Sampling rate                    : 48.0 KHz

Resolution                       : 16 bits

Stream size                      : 801 MiB (20%)

Title                            : 2

Encoded date                     : UTC 2010-05-24 15:53:54

Tagged date                    

正在读取……

这里是其它用户补充的资源(我也要补充):

ewiltuqwegt 2010/05/26 11:22:09 补充
[quote name='csbeyond' date='2010-05-26, 09:43 AM' folder='2824410:8750462'] bt种子 欢迎大

该内容尚未提供权利证明,无法提供下载。

铁碎牙sama 2010/05/26 13:13:29 补充
更新DVD/BD外挂字幕(by 四魂制作组)

该内容尚未提供权利证明,无法提供下载。
正在加载,请稍等...

点击查看所有477网友评论

 

(?) [公告]留口水、评论相关规则 | [活动]每日签到 轻松领取电驴经验

    小贴士:
  1. 类似“顶”、“沙发”之类没有营养的文字,对勤劳贡献的楼主来说是令人沮丧的反馈信息。
  2. 提问之前请再仔细看一遍楼主的说明,或许是您遗漏了。
  3. 勿催片。请相信驴友们对分享是富有激情的,如果确有更新版本,您一定能搜索到。
  4. 请勿到处挖坑绊人、招贴广告。既占空间让人厌烦,又没人会搭理,于人于己都无利。
  5. 如果您发现自己的评论不见了,请参考以上4条。