v

您的位置:VeryCD综艺晚会典礼

综艺资源事务区


《首届网络小说创作大赛颁奖盛典》(China Network Literature Contest)AVI[DVDRip]

  • 状态: 精华资源
  • 摘要:
    发行时间2010年04月08日
    地区大陆
    语言普通话
  • 时间: 2010/05/26 03:37:19 发布 | 2010/05/28 20:06:59 更新
  • 分类: 综艺  晚会典礼 

jvi

精华资源: 6

全部资源: 6

相关: 分享到新浪微博   转播到腾讯微博   分享到开心网   分享到人人   分享到QQ空间   订阅本资源RSS更新   美味书签  subtitle
该内容尚未提供权利证明,无法提供下载。
中文名首届网络小说创作大赛颁奖盛典
英文名China Network Literature Contest
资源格式DVDRip
版本AVI
发行时间2010年04月08日
电视台北京电视台 BTV
主持人宫昊
罗旭
地区大陆
语言普通话
简介

IPB Image

IPB Image

  由中国文联、北京市委宣传部指导,北京网络媒体协会携手北京市文学艺术界联合会共同主办的“首届网络小说创作大赛”2010年4月8日在北京电视台举行了隆重的颁奖盛典。从4万余部参赛作品中脱颖而出的19部佳作分享了52万元大奖,其中特等奖一名、奖金20万元,一等奖两名、奖金5万元,二等奖六名、奖金2万元,三等奖十名、奖金1万元。获奖作品涉及军事、历史、情感、传奇、童话等多个题材。中国文联副主席、书记处书记李牧,北京市委副秘书长肖培,北京市委宣传部副部长严立强出席颁奖盛典,并为获奖者颁奖。

  同时,大赛组委会特别邀请到解放军艺术学院院长、教授张继刚将军,著名作家金牌编剧邹静之,当代著名剧作家、作家、诗人苏叔阳,著名节目主持人王刚,著名中国电影女演员岳红以及清华大学、北京大学、中国政法大学、北京航空航天大学、北京交通大学学生会主席作为颁奖典礼的开奖嘉宾。

  作为国内迄今规模最大、规格最高的网络文学盛会,“首届网络小说创作大赛”自2009年7月23日正式启动以来,得到了全国各地及海外近百个国家和地区的文学爱好者的广泛关注和支持。新浪读书、央视网、晋江原创网、红袖添香、起点中文网、铁血网、幻剑书盟、天涯社区、西祠胡同、搜狐原创、网易论坛、西陆网、和讯网、中搜网和第一视频等15家承办网站为广大文学爱好者搭建了便捷的参赛平台和作品阅读平台。2010年1月23日作品征集结束,15家承办网站共收到4万余部参赛小说,符合参赛条件的作品10777部,总字数超过12亿,作品总浏览量突破31亿人次。其中,单部作品最高浏览量超过1270万人次。

评选范围
2009年7月23日之前未在网络、杂志、报纸连载,未公开出版的八万字以上的长篇网络小说。

获奖名单

特等奖
作品名称 作者 推送网站
王老五相亲记 公里 晋江

一等奖
作品名称 作者 推送网站
遍地狼烟 李晓敏 新浪
苍穹 关山万里 新浪

二等奖
作品名称 作者 推送网站
心灯:神圣的使命 风雪里 搜狐
芒果城 莲灿 天涯
泰雅魂 善梁 铁血网
龙刀 独狼 搜狐
家有台胞的故事 虹桥明珠 第一视频
风云义和拳 鲁人 搜狐

三等奖
作品名称 作者 推送网站
江湖1982 孔二狗 天涯
蹒跚 布董 网易论坛
迪特玛的眼泪 徽水一粟 西祠胡同
卧虎城 齐武 西祠胡同
东吴往事 司马路 和讯
旧年华 苏瓜瓜 晋江
最后的小站 陈庚 和讯
天谶 漠阳红 网易论坛
胡子 最后的卫道者 铁血网
我的代号叫蛔虫 孤竹飘逸 起点

晚会节目

·表演艺术家王刚开启组织奖
·颁发大赛组织奖
·评委张柠、王干谈作品评选
·叶蓓演唱《与感情无关》(电影《第一次亲密接触》主题曲)
·编剧邹静之开启三等奖
·颁发大赛三等奖(十位)
·冰心组合演唱《数字神兵》
·演员岳红开启二等奖
·颁发大赛二等奖(六位)
·李键演唱《传奇》
·作家舒苏阳开启一等奖
·颁发大赛一等奖(两位)
·蔡国庆演唱《美好如梦》
·张继刚将军开启特等奖
·颁发大赛特等奖(一位)
·19位获奖作者与嘉宾合影

视频参数

长度:01:16:58
分辨率:720x576

真实截图

IPB Image
IPB Image
IPB Image
IPB Image
IPB Image
IPB Image
特别说明:“颁奖花絮”是电视上没有播放出来,被剪辑掉的一些的镜头,其中包含了作者采访的完整内容,还有一些出错的镜头等。只要看完整版颁奖晚会的,只需下载“颁奖盛典”就可以了。

代码
    Format : AVI
    Format/Info : Audio Video Interleave
    File size : 1.93 GiB
    Duration : 1h 16mn
    Overall bit rate : 3 593 Kbps
    Writing application : VirtualDubMod 1.5.10.2 (build 2542/release)
    Writing library : VirtualDubMod build 2542/release
  Video #0
    ID : 0
    Format : MPEG-4 Visual
    Format profile : Simple@L1
    Format settings, BVOP : No
    Format settings, QPel : No
    Format settings, GMC : No warppoints
    Format settings, Matrix : Default (H.263)
    Codec ID : XVID
    Codec ID/Hint : XviD
    Duration : 1h 16mn
    Bit rate : 2 048 Kbps
    Width : 720 pixels
    Height : 576 pixels
    Display aspect ratio : 5:4
    Frame rate : 25.000 fps
    Standard : PAL
    Resolution : 24 bits
    Colorimetry : 4:2:0
    Scan type : Progressive
    Bits/(Pixel*Frame) : 0.198
    Stream size : 1.10 GiB (57%)
    Writing library : Lavc52.41.0
  Audio
    Format : PCM
    Format settings, Endianness : Little
    Format settings, Sign : Unsigned
    Codec ID : 1
    Codec ID/Hint : Microsoft
    Duration : 1h 16mn
    Bit rate mode : Constant
    Bit rate : 1 536 Kbps
    Channel(s) : 2 channels
    Sampling rate : 48.0 KHz
    Resolution : 16 bits
    Stream size : 846 MiB (43%)
    Interleave, duration : 40 ms (1.00 video frame)
    Interleave, preload duration : 500 ms

正在读取……

这里是其它用户补充的资源(我也要补充):

暂无补充资源
正在加载,请稍等...

点击查看所有31网友评论

 

(?) [公告]留口水、评论相关规则 | [活动]每日签到 轻松领取电驴经验

    小贴士:
  1. 类似“顶”、“沙发”之类没有营养的文字,对勤劳贡献的楼主来说是令人沮丧的反馈信息。
  2. 提问之前请再仔细看一遍楼主的说明,或许是您遗漏了。
  3. 勿催片。请相信驴友们对分享是富有激情的,如果确有更新版本,您一定能搜索到。
  4. 请勿到处挖坑绊人、招贴广告。既占空间让人厌烦,又没人会搭理,于人于己都无利。
  5. 如果您发现自己的评论不见了,请参考以上4条。