v

您的位置:VeryCD动漫动漫周边

动漫资源事务区


《玛丽&伽利 Ver.2.0》(Marie&Gali Ver.2.0)[主题歌 カガクル! ミラクル!][TTA+BK](已传JS)

  • 状态: 精华资源
  • 摘要:
    发行时间2010年5月19日
  • 时间: 2010/05/21 02:14:07 发布 | 2010/05/21 09:49:22 更新
  • 分类: 动漫  动漫周边 

动漫驿站

精华资源: 11

全部资源: 16

相关: 分享到新浪微博   转播到腾讯微博   分享到开心网   分享到人人   分享到QQ空间   订阅本资源RSS更新   美味书签  subtitle
该内容尚未提供权利证明,无法提供下载。
中文名玛丽&伽利 Ver.2.0
英文名Marie&Gali Ver.2.0
版本[主题歌 カガクル! ミラクル!][TTA+BK](已传JS)
发行时间2010年5月19日
地区日本
简介

IPB Image

内容介绍

第二期的OP终于出了XD

还收录了目前未在正片放出的插曲一首


档案原名

[EAC] [20100519] 科学アニメ マリー&ガリー Ver.2.0 主題歌 カガクル! ミラクル! (tta+cue+bk+rr5%).rar

附带了第一期BK的修正版

专辑介绍

IPB Image

定価:1260円 (税込)
本体価格:1200円
組数:1枚
演奏時間:00:10:04
曲数:4
発売日:2010年05月19日
販売元:コロムビアミュージックエンタテインメント
規格番号:COCC-16375
JAN:4988001304500

收录了二期的主题歌以及目前还没听到的插曲

Artists

1.歌:マリカ(千葉千恵巳)&ノリカ(井上麻里奈)/作詞:もりちよこ/作曲:高取ヒデアキ/編曲:籠島裕昌
2.歌:マリカ(千葉千恵巳)&ノリカ(井上麻里奈)/作詞:井上美緒/作曲:高取ヒデアキ/編曲:籠島裕昌
3~4.作曲:高取ヒデアキ/編曲:籠島裕昌

收录曲目

1-1(1:40) カガクル!ミラクル!
1-2(3:22) 私を未来に連れてって
1-3(1:40) カガクル!ミラクル!(オリジナルカラオケ)
1-4(3:22) 私を未来に連れてって(オリジナルカラオケ)

log

引用
Exact Audio Copy V0.99 prebeta 5 from 4. May 2009

EAC 取り込みログファイル 日付 : 19. 5月 2010, 17:41

Unknown Artist / Unknown Title

使用ドライブ : PIONEER DVD-RW DVR-215D Adapter: 2 ID: 5

読み込みモード : セキュアモード
ドライブが正確なデータ転送能力を持つ : はい
オーディオキャッシュを使用できる : はい
C2エラー情報を検出する : いいえ

読み込みサンプルオフセット訂正値 : 18
リードイン・リードアウトをオーバーリードする : いいえ
欠落したオフセットサンプルを無音で補完する : はい
曲の先頭と末端の無音領域を削除する : いいえ
CRC計算で無音のサンプルを使用するか : いいえ
使用インターフェース : Win NT & 2000用のクラスドライバ

使用出力モード : 内蔵WAV出力ルーチン
サンプルフォーマット : 44.100 Hz; 16 Bit; ステレオ


TOC情報を抜き出します

トラック | スタート | 長さ | 始めのセクター | 最終セクター
----------------------------------------------------------------
1 | 0:00.00 | 1:43.40 | 0 | 7764
2 | 1:43.40 | 3:29.73 | 7765 | 23512
3 | 5:13.38 | 1:43.27 | 23513 | 31264
4 | 6:56.65 | 3:27.39 | 31265 | 46828


範囲取り込みステータス & エラー

選択された範囲

ファイル名 D:\Unknown Artist - Unknown Title.wav

ピークレベル 100.0 %
範囲取り込み品質 100.0 %
コピーCRC 856CA5A0
コピー OK

エラーは発生しませんでした

ステータス報告完了


◆JS链接◆

[永久空间] 科学アニメ『マリー&ガリー Ver.2.0』主題歌「カガクル!ミラクル!」(EAC・TTA+BK)[原档]

正在读取……

这里是其它用户补充的资源(我也要补充):

暂无补充资源
正在加载,请稍等...

点击查看所有10网友评论

 

(?) [公告]留口水、评论相关规则 | [活动]每日签到 轻松领取电驴经验

    小贴士:
  1. 类似“顶”、“沙发”之类没有营养的文字,对勤劳贡献的楼主来说是令人沮丧的反馈信息。
  2. 提问之前请再仔细看一遍楼主的说明,或许是您遗漏了。
  3. 勿催片。请相信驴友们对分享是富有激情的,如果确有更新版本,您一定能搜索到。
  4. 请勿到处挖坑绊人、招贴广告。既占空间让人厌烦,又没人会搭理,于人于己都无利。
  5. 如果您发现自己的评论不见了,请参考以上4条。