v

您的位置:VeryCD动漫剧场动画

动漫资源事务区


《马可波罗回香都》(Marco Polo Return to Xanadu)[DVDRip]

  • 状态: 精华资源
  • 摘要:
    发行时间2001年
    语言英语
  • 时间: 2010/05/09 17:46:55 发布 | 2010/05/10 14:08:57 更新
  • 分类: 动漫  剧场动画 

life_is_good

精华资源: 6571

全部资源: 7301

相关: 分享到新浪微博   转播到腾讯微博   分享到开心网   分享到人人   分享到QQ空间   订阅本资源RSS更新   美味书签  subtitle
该内容尚未提供权利证明,无法提供下载。
中文名马可波罗回香都
英文名Marco Polo Return to Xanadu
资源格式DVDRip
发行时间2001年
导演Ron Merk
语言英语
简介

IPB Image
◎译  名 马可波罗回香都
◎片  名 Marco Polo Return to Xanadu
◎年  代 2001
◎国  家 美国/斯洛伐克/中国
◎类  别 动画/家庭
◎语  言 英语
◎字  幕 N/A
◎IMDB评分 6.4/10 29 votes
◎IMDB链接 http://www.imdb.com/title/tt0296074
◎文件格式 XviD + MP3
◎视频尺寸 640 x 480
◎文件大小 1CD 37 x 20MB
◎片  长 80 min
◎导  演 Ron Merk
◎主  演 Paul Ainsley ... Wong Wei
      Alan Altshuld ... Pangu
      Elea Breitling ... Princess Ming Yu (as Elea Bartling)
      尼古拉斯·冈萨雷斯 Nicholas Gonzalez ... Young Marco
      John C. Hyke ... Malgor the Vulture
      Michael Kostroff ... Kubla Khan
      Robert Kramer ... Helmsman
      John Matthew ... The Delicate Dinosaur / Marco Polo
      Tim Byron Owen ... Space Station Captain
      Tony Pope ... Babu / Foo-Ling / Reginald the Seagull

◎简  介 

  在古老的香都王国,意大利旅行家马可-波罗告别可汗,准备返回自己的家乡。为维护友谊,可汗欲将充满神奇力量的魔法金币送给他。不料,对王位垂涎已久的大臣福林却寻机偷走金币,随后便隐匿无踪。可汗得知真相后,将自己随身携带的金币一分为二,送给老马可。凭借这半枚金币,他们的后人可以穿梭时空。一旦两家人相聚,金币便可重获魔力。

  时光飞逝,老马可的后裔小马可已经长成英俊青年。他佩戴祖传的半枚金币,历尽艰难险阻,来到香都王国。在海鸥瑞杰等朋友的帮助下,小马可终于揭开金币之谜,并从福林手中夺回了被窃走的金币,救出了可爱的荷花公主。但福林却再次出现,派出秃鹫赖古再次抢走了荷花公主手中的金币。为了伸张正义,惩处恶魔,小马可又踏上了征程……


幕后制作

  《马可-波罗回香都》是由中国大连阿凡提国际动画公司与美国托尼文索公司联合摄制完成的一部动画故事片。

  这部抒情加惊险的动画大片是中国、美国、韩国、澳大利亚、加拿大、保加利亚、斯洛伐克等7国数百位动画艺术家历时5年创作完成的,共绘制了12万张原动画,这些画稿如果连着铺在地上足有60公里长。这部讲述中国和意大利人民友好交往的动画片,不仅有曲折优美的故事,而且随着小马可的航海历程,还展现了世界各地的风情。小马可的朋友变色恐龙,中国公主的朋友大象迈克和恶魔的帮凶秃鹰,都采用拟人化手法,显得夸张而有趣。

  《马可-波罗回香都》采用了最先进的电脑特技,还邀请了国际上的当红歌星演唱其中的7首插曲。影片配音采取了英语和普通话两种语言,中文版配音工作是在上海电影译制厂进行的。丁建华担任配音导演,乔榛则为片中威严的忽必烈可汗配音。为小马可配音的是上海有线电视台体育节目主持人译男。

  这部影片的创作可以说是一次国际性合作的尝试。由于创作人员来自不同的国度,文化背景存在差异,语言交流也有很大障碍,给影片创作带来一定的难度。导演朗-马可说:“这是我从未遇到过的最艰巨的任务,作为一个处于影片制作最中心的人物,我要以总导演的身份,用最佳办法把我的想法传递给上百位我从未谋面的人。”

代码
Marco.Polo.Return.to.Xanadu.2001.iNTERNAL.DVDRip.XViD-SPRiNTER
http://www.imdb.com/title/tt0296074/

Date: 2010.05

Director: Ron Merk
Genre: Animation / Family
Plot: An adventure story about a young Marco whose ancestor was
      the descendant of the famous historical Marco Polo, takes
      an exciting journey to the mythical kingdom of Xanadu. He
      must travel back to the land of the Kubla Khan to save it
      from an evil villain who is a magician, known as Foo-Ling
      who does not want Marco to reach Xanadu. The help of his
      friends and the great powers of the medallion enable Marco
      to chase after Foo-Ling through space and time, and one day
      bring him back to justice.



Cast:
    Paul Ainsley     ...     Wong Wei
    Alan Altshuld     ...     Pangu
    Elea Breitling     ...     Princess Ming Yu (as Elea Bartling)
    Nicholas Gonzalez ...     Young Marco
    John C. Hyke     ...     Malgor the Vulture
    Michael Kostroff  ...     Kubla Khan
    Robert Kramer     ...     Helmsman
    John Matthew     ...     The Delicate Dinosaur / Marco Polo
    Tim Byron Owen     ...     Space Station Captain
    Tony Pope     ...     Babu / Foo-Ling / Reginald the Seagull


      圹圹圹圹圹圹圹圹?
  圹圹?              圹圹?
圹    Release notes    圹
  圹圹?              圹圹?
      圹圹圹圹圹圹圹圹?

       Enjoy!


      圹圹圹圹圹?
  圹圹?        圹圹?
圹    Greetings    圹
  圹圹?        圹圹?
      圹圹圹圹圹?


NTX aAF FiCO HNR CiNEFiLE AEN HUMANiSM


      圹圹圹圹圹?
  圹圹?        圹圹?
圹    Details    圹
  圹圹?        圹圹?
      圹圹圹圹圹?

Format                          : AVI
Format/Info                      : Audio Video Interleave
File size                        : 700 MiB
Duration                        : 1h 20mn
Overall bit rate                : 1 223 Kbps
Writing application              : VirtualDubMod 1.5.10.2 (build 2540/release)
Writing library                  : VirtualDubMod build 2540/release

Video
ID                              : 0
Format                          : MPEG-4 Visual
Format profile                  : Advanced Simple@L5
Format settings, BVOP            : Yes
Format settings, QPel            : No
Format settings, GMC            : No warppoints
Format settings, Matrix          : Default (H.263)
Muxing mode                      : Packed bitstream
Codec ID                        : XVID
Codec ID/Hint                    : XviD
Duration                        : 1h 20mn
Bit rate                        : 1 113 Kbps
Width                            : 640 pixels
Height                          : 480 pixels
Display aspect ratio            : 4:3
Frame rate                      : 25.000 fps
Resolution                      : 8 bits
Colorimetry                      : 4:2:0
Scan type                        : Progressive
Bits/(Pixel*Frame)              : 0.145
Stream size                      : 637 MiB (91%)
Writing library                  : XviD 1.2.1 (UTC 2008-12-04)

Audio
ID                              : 1
Format                          : MPEG Audio
Format version                  : Version 1
Format profile                  : Layer 3
Codec ID                        : 55
Codec ID/Hint                    : MP3
Duration                        : 1h 20mn
Bit rate mode                    : Variable
Bit rate                        : 96.6 Kbps
Minimum bit rate                : 32.0 Kbps
Channel(s)                      : 1 channel
Sampling rate                    : 48.0 KHz
Stream size                      : 55.3 MiB (8%)
Alignment                        : Aligned on interleaves
Interleave, duration            : 24 ms (0.60 video frame)
Interleave, preload duration    : 413 ms
Writing library                  : LAME3.97
Encoding settings                : -m m -V 2 -q 3 -lowpass 18.6 --vbr-new -b 32

正在读取……

这里是其它用户补充的资源(我也要补充):

暂无补充资源
正在加载,请稍等...

点击查看所有34网友评论

 

(?) [公告]留口水、评论相关规则 | [活动]每日签到 轻松领取电驴经验

    小贴士:
  1. 类似“顶”、“沙发”之类没有营养的文字,对勤劳贡献的楼主来说是令人沮丧的反馈信息。
  2. 提问之前请再仔细看一遍楼主的说明,或许是您遗漏了。
  3. 勿催片。请相信驴友们对分享是富有激情的,如果确有更新版本,您一定能搜索到。
  4. 请勿到处挖坑绊人、招贴广告。既占空间让人厌烦,又没人会搭理,于人于己都无利。
  5. 如果您发现自己的评论不见了,请参考以上4条。