v

您的位置:VeryCD动漫动漫周边

动漫资源事务区


《ミセリコルディア》(MISERICORDIA)[同人音楽][M3-25][TAK]

  • 状态: 精华资源
  • 摘要:
    发行时间2010年05月05日
    对白语言日语
    文字语言日文
  • 时间: 2010/05/08 10:45:54 发布 | 2010/05/09 19:55:11 更新
  • 分类: 动漫  动漫周边 

bubu猪仔

精华资源: 2

全部资源: 2

相关: 分享到新浪微博   转播到腾讯微博   分享到开心网   分享到人人   分享到QQ空间   订阅本资源RSS更新   美味书签  subtitle
该内容尚未提供权利证明,无法提供下载。
中文名ミセリコルディア
英文名MISERICORDIA
资源格式TAK
版本[同人音楽][M3-25]
发行时间2010年05月05日
地区日本
对白语言日语
文字语言日文
简介

IPB Image
资源来源自:http://tora.to/blog/402521.htm
资源原名
[EAC] MISERICORDIA - MISERICORDIA [同人音楽 100505(M3-25)] (takInCue).rar

IPB Image

NICO预览:
http://www.nicovideo.jp/watch/sm10455969
http://purin77.blog123.fc2.com/ ←此页面中也有试听预览

MISERICORDIA-ミセリコルディア-

表演者:
花たん / ゆよゆっぺ / こまん / やじるしP

5/5 M3-2010春<第25回即売会>にて頒布開始予定
スペース場所:1階A34
イベント価格:800円
ショップ委託予定

しめ子(封面插画担当)的评论:
みんな待ってたゆよ花のアルバムCDです…!
とにかく、聞くのにハンカチが必須です。そのくらい素敵で、感動します。
語彙力なくてうまく表現できなくてとてもとても悔しいですが
本当におすすめです。ぜひにぜひに!


曲目:
1.Eternity
2.Dely
3.徒夢
4.グレイシア
5.Hope ac
6.Drown
7.You and beautiful world

官网:
http://misericordia.seesaa.net/


压缩包内截图:
IPB Image

TAK已内置CUE,如播放器不支持可使用外挂CUE,修复如下。

外挂CUE文件修复:

代码
REM DATE 2010
REM DISCID 5C07B808
REM COMMENT "ExactAudioCopy v0.99pb4"
PERFORMER "MISERICORDIA"
TITLE "MISERICORDIA"
FILE "KYHY-0001.tak" WAVE
  TRACK 01 AUDIO
    TITLE "Eternity"
    PERFORMER "花たん"
    INDEX 01 00:00:00
  TRACK 02 AUDIO
    TITLE "Dely"
    PERFORMER "花たん"
    INDEX 01 02:12:31
  TRACK 03 AUDIO
    TITLE "徒夢"
    PERFORMER "花たん"
    INDEX 01 05:58:47
  TRACK 04 AUDIO
    TITLE "グレイシア"
    PERFORMER "花たん"
    INDEX 01 10:51:72
  TRACK 05 AUDIO
    TITLE "Hope ac"
    PERFORMER "花たん"
    INDEX 01 15:39:72
  TRACK 06 AUDIO
    TITLE "Drown"
    PERFORMER "花たん"
    INDEX 01 19:34:31
  TRACK 07 AUDIO
    TITLE "You and beautiful world"
    PERFORMER "花たん"
    INDEX 01 23:58:30
  TRACK 08 AUDIO
    TITLE "bonustrack"
    PERFORMER "MISERICORDIA"
    INDEX 01 29:16:30



补上LOG:
引用
Exact Audio Copy V0.99 prebeta 4 from 23. January 2008

EAC extraction logfile from 6. May 2010, 3:21

MISERICORDIA / MISERICORDIA

Used drive : SlimtypeDVD A DS8A1P Adapter: 0 ID: 0

Read mode : Secure
Utilize accurate stream : Yes
Defeat audio cache : Yes
Make use of C2 pointers : No

Read offset correction : 594
Overread into Lead-In and Lead-Out : Yes
Fill up missing offset samples with silence : Yes
Delete leading and trailing silent blocks : No
Null samples used in CRC calculations : Yes
Used interface : Installed external ASPI interface

Used output format : Internal WAV Routines
Sample format : 44.100 Hz; 16 Bit; Stereo


TOC of the extracted CD

Track | Start | Length | Start sector | End sector
---------------------------------------------------------
1 | 0:00.00 | 2:12.31 | 0 | 9930
2 | 2:12.31 | 3:46.16 | 9931 | 26896
3 | 5:58.47 | 4:53.25 | 26897 | 48896
4 | 10:51.72 | 4:48.00 | 48897 | 70496
5 | 15:39.72 | 3:54.34 | 70497 | 88080
6 | 19:34.31 | 4:23.74 | 88081 | 107879
7 | 23:58.30 | 5:18.00 | 107880 | 131729
8 | 29:16.30 | 3:40.00 | 131730 | 148229


Range status and errors

Selected range

Filename D:\Audio\KYHY-0001.wav

Suspicious position 0:32:56

Peak level 100.0 %
Range quality 99.9 %
Copy CRC 9FC86F27
Copy finished

There were errors


AccurateRip summary

Track 1 not present in database
Track 2 not present in database
Track 3 not present in database
Track 4 not present in database
Track 5 not present in database
Track 6 not present in database
Track 7 not present in database
Track 8 not present in database

None of the tracks are present in the AccurateRip database

End of status report


PS: 使用eMule ScarAngel 3.3 上传,加载Strict DLP Chinese,屏蔽XL、easyMule、MiniMule等Mod。常驻在 eDonkeyServer No2 服务器上。
ADSL小水管,请各位给点耐心慢慢下,下完不要马上跑啊…………吸血退散~~~


感谢malujiji童鞋补充封面大图~
http://i434.photobucket.com/albums/qq63/TipTapYo/folder-1.jpg
IPB Image
IPB Image

正在读取……

这里是其它用户补充的资源(我也要补充):

暂无补充资源
正在加载,请稍等...

点击查看所有35网友评论

 

(?) [公告]留口水、评论相关规则 | [活动]每日签到 轻松领取电驴经验

    小贴士:
  1. 类似“顶”、“沙发”之类没有营养的文字,对勤劳贡献的楼主来说是令人沮丧的反馈信息。
  2. 提问之前请再仔细看一遍楼主的说明,或许是您遗漏了。
  3. 勿催片。请相信驴友们对分享是富有激情的,如果确有更新版本,您一定能搜索到。
  4. 请勿到处挖坑绊人、招贴广告。既占空间让人厌烦,又没人会搭理,于人于己都无利。
  5. 如果您发现自己的评论不见了,请参考以上4条。