v

您的位置:VeryCD动漫动漫周边

动漫资源事务区


《东方活动同人志2》[例大祭7][同人动画][东方][压缩包]

  • 状态: 精华资源
  • 摘要:
    发行时间2010年3月14日
    对白语言日语
    文字语言日文
  • 时间: 2010/05/07 18:58:59 发布 | 2010/05/08 21:57:51 更新
  • 分类: 动漫  动漫周边 

hhhhcccccccc

精华资源: 8

全部资源: 9

相关: 分享到新浪微博   转播到腾讯微博   分享到开心网   分享到人人   分享到QQ空间   订阅本资源RSS更新   美味书签  subtitle
该内容尚未提供权利证明,无法提供下载。
中文名东方活动同人志2
资源格式压缩包
版本[例大祭7][同人动画][东方]
发行时间2010年3月14日
地区日本
对白语言日语
文字语言日文
简介

IPB Image

【作品介绍】

NicoNico最近很火热的两段PV,东方风神录OP和兔子在月球上打炮的相对清晰的DVD版。

其实就是原作将两个PV给制成了光碟,但还是不够高清,比较遗憾。

风神录那篇十分的精彩十分的燃,必下作品!

红叶ブラシ同好会 わりと动く同人誌2(2作品収録)

东方の二次创作アニメーション。コチラもニコ动で公开されていた物のDVD版。

【视频信息】

General
Format : MPEG-PS
File size : 207 MiB
Duration : 3mn 38s
Overall bit rate : 7 951 Kbps

Video
Format : MPEG Video
Duration : 3mn 38s
Bit rate : 7 443 Kbps
Nominal bit rate : 8 813 Kbps
Width : 720 pixels
Height : 480 pixels
Display aspect ratio : 4:3
Frame rate : 29.970 fps
Bits/(Pixel*Frame) : 0.719
Stream size : 194 MiB (94%)

Audio
Format : AC-3
Format/Info : Audio Coding 3
Duration : 3mn 38s
Bit rate : 192 Kbps
Channel(s) : 2 channels
Channel positions : L R
Sampling rate : 48.0 KHz
Stream size : 5.01 MiB (2%)

【作者】

红叶ブラシ同好会

【作品列表】

1.东方风神录OP(1分54秒)

2.月世界战士PV(1分49秒)

【视频截图】

IPB Image

PS:

供源时间:3:00 P.M. 至 第二天 11 A.M.(通常情况,发布不久的资源供源会更频繁,当然不排除有例外,若发现在该时段无源,请等待一段时间,希望您能理解)]

常住服务器:eDonkeyServer No2 (212.63.206.35:4242)

小水管,请好心人帮忙分流~~~

若很长一段时间后发现无源请发消息给我,我会立刻补源,谢谢~

正在读取……

这里是其它用户补充的资源(我也要补充):

暂无补充资源
正在加载,请稍等...

点击查看所有16网友评论

 

(?) [公告]留口水、评论相关规则 | [活动]每日签到 轻松领取电驴经验

    小贴士:
  1. 类似“顶”、“沙发”之类没有营养的文字,对勤劳贡献的楼主来说是令人沮丧的反馈信息。
  2. 提问之前请再仔细看一遍楼主的说明,或许是您遗漏了。
  3. 勿催片。请相信驴友们对分享是富有激情的,如果确有更新版本,您一定能搜索到。
  4. 请勿到处挖坑绊人、招贴广告。既占空间让人厌烦,又没人会搭理,于人于己都无利。
  5. 如果您发现自己的评论不见了,请参考以上4条。