v

您的位置:VeryCD综艺纪录片

综艺资源事务区


《历史频道 脑》(History Channel The Brain)[DVDRip]

  • 状态: 精华资源
  • 摘要:
    发行时间2008年
    地区美国
    语言英语
  • 时间: 2010/05/01 15:13:21 发布 | 2010/05/10 19:09:37 更新
  • 分类: 综艺  纪录片 

life_is_good

精华资源: 6571

全部资源: 7301

相关: 分享到新浪微博   转播到腾讯微博   分享到开心网   分享到人人   分享到QQ空间   订阅本资源RSS更新   美味书签  subtitle
该内容尚未提供权利证明,无法提供下载。
中文名历史频道 脑
英文名History Channel The Brain
资源格式DVDRip
发行时间2008年
制作发行History Channel
地区美国
语言英语
简介

IPB Image

◎译  名 脑
◎片  名 The Brain
◎年  代 2008
◎国  家 美国
◎类  别 历史
◎语  言 英语
◎字  幕 N/A
◎IMDB评分 8.3/10 5 votes
◎IMDB链接 http://www.imdb.com/title/tt1342983
◎文件格式 XviD + MP3
◎视频尺寸 608 x 336
◎文件大小 1CD 50 x 15MB
◎片  长 90min
◎导  演 
◎主  演 Erik Thompson ... Narrator

◎简  介 

通过浅显的类比、真实案例分析和顶尖CGI技术支持,本记录片向我们展示了人脑这一复杂机器的运行原理,揭示了他精密而稳定的特性,剖析了意识的秘密。片中,我们走进身处战场的士兵的大脑,看看人是如何在极端情况下做出决策的;我们走进雨人的大脑,看看这样的孤僻的人是如何获得惊人的能力的。(文:life_is_good@YDY)

The Brain is an astonishing voyage of discovery into our last biological frontier. Although today's computers can make calculations in one-100th of a second and technology can transport us outside the bonds of Earth, only now are we beginning to understand the most complex machine in the universe.

Using simple analogies, real-life case studies, and state-of-the-art CGI, this special shows how the brain works, explains its delicate yet resilient nature, and unravels the mystery of consciousness. It takes us inside the mind of a soldier under fire to see how decisions are made in extreme situations, examines how an autistic person like Rain Man develops remarkable skills, and takes on the age-old question of what makes one person good and another evil.

Research is rushing forward. We've learned more about the workings of the brain in the last five years than in the previous one hundred. This DVD from History brings it all to spellbinding life.

代码
ARTiCHOKE

SPRiNTER proudly presents...


The.Brain.2008.DVDRip.XviD-SPRiNTER
http://www.imdb.com/title/tt1342983/
Subtitles: N/A

Date: 2010.04

Director: -
Genre: History
Plot: Scientists are only now beginning to understand the most complex
machine in the known universe - the brain...

Cast:

Erik Thompson ... Narrator




Release notes


Enjoy!




Greetings




NTX aAF FiCO HNR CiNEFiLE AEN HUMANiSM



Details


Format : AVI
Format/Info : Audio Video Interleave
File size : 699 MiB
Duration : 1h 30mn
Overall bit rate : 1 077 Kbps
Writing application : Nandub v1.0rc2
Writing library : Nandub build 1852/release

Video
ID : 0
Format : MPEG-4 Visual
Format profile : Advanced Simple@L5
Format settings, BVOP : No
Format settings, QPel : No
Format settings, GMC : No warppoints
Format settings, Matrix : Default (H.263)
Codec ID : XVID
Codec ID/Hint : XviD
Duration : 1h 30mn
Bit rate : 928 Kbps
Width : 608 pixels
Height : 336 pixels
Display aspect ratio : 16:9
Frame rate : 23.976 fps
Resolution : 8 bits
Colorimetry : 4:2:0
Scan type : Progressive
Bits/(Pixel*Frame) : 0.189
Stream size : 602 MiB (86%)
Writing library : XviD 1.1.2 (UTC 2006-11-01)

Audio
ID : 1
Format : MPEG Audio
Format version : Version 1
Format profile : Layer 3
Codec ID : 55
Codec ID/Hint : MP3
Duration : 1h 30mn
Bit rate mode : Variable
Bit rate : 137 Kbps
Minimum bit rate : 40.0 Kbps
Channel(s) : 2 channels
Sampling rate : 48.0 KHz
Stream size : 88.6 MiB (13%)
Alignment : Aligned on interleaves
Interleave, duration : 24 ms (0.58 video frame)
Interleave, preload duration : 337 ms
Writing library : LAME3.95
Encoding settings : -m s -V 5 -q 3 -lowpass 17 --vbr-old -b 40

正在读取……

这里是其它用户补充的资源(我也要补充):

暂无补充资源
正在加载,请稍等...

点击查看所有19网友评论

 

(?) [公告]留口水、评论相关规则 | [活动]每日签到 轻松领取电驴经验

    小贴士:
  1. 类似“顶”、“沙发”之类没有营养的文字,对勤劳贡献的楼主来说是令人沮丧的反馈信息。
  2. 提问之前请再仔细看一遍楼主的说明,或许是您遗漏了。
  3. 勿催片。请相信驴友们对分享是富有激情的,如果确有更新版本,您一定能搜索到。
  4. 请勿到处挖坑绊人、招贴广告。既占空间让人厌烦,又没人会搭理,于人于己都无利。
  5. 如果您发现自己的评论不见了,请参考以上4条。