v

您的位置:VeryCD音乐原声音乐

音乐资源事务区


原声大碟 -《幻想三国志4外传音乐CD》(Fantasia Sango 4 Expansion Pack Original Sound Track CD)[APE]

  • 状态: 精华资源
  • 摘要:
    发行时间2010年
  • 时间: 2010/04/30 01:26:28 发布 | 2010/04/30 15:35:23 更新
  • 分类: 音乐  原声音乐 

xxwkof

精华资源: 12

全部资源: 16

相关: 分享到新浪微博   转播到腾讯微博   分享到开心网   分享到人人   分享到QQ空间   订阅本资源RSS更新   美味书签  subtitle
该内容尚未提供权利证明,无法提供下载。
专辑中文名幻想三国志4外传音乐CD
专辑英文名Fantasia Sango 4 Expansion Pack Original Sound Track CD
艺术家原声大碟
资源格式APE
发行时间2010年
地区台湾
语言普通话
简介

IPB Image

专辑介绍:

◎游戏介绍:

1、《幻想三国志》系列终结之作;

2、结合了武侠、神幻与爱情的RPG,以全新的角度重新诠释武侠人物、故事;

3、突破传统剧情表现,2D手绘,3D运镜。卡通结合中国古典风格,奇妙鲜明的美术风格;

4、标准版超值附赠游戏原声音乐CD、精美磁力贴周边,并且包含资料片“三界秘闻录”内容,感谢玩家对《幻想三国志》系列游戏的支持;

此作的游戏故事将会补完《幻想三国志4》在剧情中没有交代的情结,以及以楼澈为主的全新剧情故事;而一代主角姬霜,也将神秘出现在外传的故事之中,在一代故事的10年后,姬霜变的更加成熟绝美,他是基于什么样的理由出现在外传故事,与楼澈主角们又有什么样的恩怨纠葛呢?除了姬霜之外,还会有其它前代主角出现吗?这些谜题请玩家亲自来体验啰。另外,可参与战斗的人数上也大幅增加,且原本被定位为重要角色无法加入战斗的璎珞、苏袖与南宫毓,在外传中也升格为主角群,成为在战斗中不可或缺的即战力,化神也再增加数量,增添更多的战斗丰富性以及乐趣。

◆ 主角换人做做看,四代伏笔大揭密

  本次外传的剧情,是以天界的任性仙人—楼澈担任主角,描述在与紫丞相遇之前,是如何与苏袖、南宫毓相识结伴同行,又是如何与天界众神互动,以及在本传中,在楼澈与紫丞分开进行的时期,楼澈所经历的、原本所没有交代的故事一次补完,在关键时期,也可以选择用不同的主角路线游玩唷。除此之外,在结局部份也新增楼澈与女主角们的感情结局,所以对于支持楼澈,觉得所有好处都被紫丞占尽的楼楼后援会粉丝来说,这可是一个解除怨念的绝佳机会。

◆ 前作主角神秘现身,昔日角色全新面貌

  一代主角姬霜将神秘出现在外传的故事之中,在一代故事的10年后,姬霜变的更加成熟绝美,他是基于什么样的理由出现在外传故事,与楼澈主角们又有什么样的恩怨纠葛呢?除了姬霜之外,还会有其他前代主角出现吗?这些谜题请玩家亲自来体验囉。

◆ 战斗成员全员到齐,化神猛将如虎添翼

  在战斗部份,原本被定位为重要角色无法加入战斗的璎珞、苏袖与南宫毓,在外传中也升格为主角群,成为在战斗中不可或缺的即战力,化神也再增加数量,使战斗的组合乐趣加倍。另外在剧情部份,也会将南宫毓与公孙宛儿告吹的恋情秘辛、南宫家与公孙家的恩怨纠葛作一个完整交代,让所有喜爱上述角色的玩家可以更接近深入了解他们的故事。还有,一代及二代大家所知晓的角色,也将全新出场,他们又会与楼澈一行人激荡出什么火花呢?

◆ 神秘完美大结局,让玩家一尝宿愿

  除了以上介绍的不同点以外,游游戏里还加入了其他的新要素,其中包括一些不为人知的隐藏剧情与重要角色分支事件,以及玩家心心念念的神秘完美大结局。至于结局之后是否有全新剧情,就请大家将「幻想三国志4外传」带回家,让自己随着楼澈的冒险亲自来见证吧。

◎资源介绍
由幻想三国志4外传豪华版音乐CD转录抓轨..

代码

Exact Audio Copy V0.99 prebeta 5 from 4. May 2009

EAC 抓取日志文件从28. 四月 2010, 2:06

寰宇之星 / 幻想三国志4外传音乐CD

使用驱动器  :PIONEER DVD-RW  DVR-217   Adapter: 0  ID: 1

读取模式     : 保护
使用精确流   : 是
废除音频缓冲 : 是
使用 C2 指针 : 否

读取偏移校正                   : 114
读取 Lead-In 和 Lead-Out       : 否
用静音填充抓取中丢失偏移的采样 : 是
去除首尾静音块                 : 否
在 CRC 计算中使用了空样本      : 是
已用接口                       : 已安装外部 ASPI 接口

所用输出格式 : 内部 WAV 函数
样本格式     : 44.100 Hz;16 Bit;立体声


被抓轨 CD 的 TOC

     音轨 |   开始   |   长度   | 起始扇区 | 结尾扇区
    --------------------------------------------------
       1  |  0:00.00 |  3:44.22 |       0  |   16821  
       2  |  3:44.22 |  1:33.20 |   16822  |   23816  
       3  |  5:17.42 |  1:02.02 |   23817  |   28468  
       4  |  6:19.44 |  1:31.20 |   28469  |   35313  
       5  |  7:50.64 |  1:30.02 |   35314  |   42065  
       6  |  9:20.66 |  1:32.00 |   42066  |   48965  
       7  | 10:52.66 |  1:35.28 |   48966  |   56118  
       8  | 12:28.19 |  1:38.52 |   56119  |   63520  
       9  | 14:06.71 |  4:41.42 |   63521  |   84637  
      10  | 18:48.38 |  1:32.50 |   84638  |   91587  
      11  | 20:21.13 |  1:37.00 |   91588  |   98862  
      12  | 21:58.13 |  1:08.17 |   98863  |  103979  
      13  | 23:06.30 |  1:32.00 |  103980  |  110879  
      14  | 24:38.30 |  1:03.55 |  110880  |  115659  
      15  | 25:42.10 |  1:30.62 |  115660  |  122471  
      16  | 27:12.72 |  2:04.00 |  122472  |  131771  
      17  | 29:16.72 |  1:31.15 |  131772  |  138611  
      18  | 30:48.12 |  2:08.65 |  138612  |  148276  
      19  | 32:57.02 |  3:44.20 |  148277  |  165096  
      20  | 36:41.22 |  4:39.40 |  165097  |  186061  


范围状态及错误

已选择范围

     文件名 I:\寰宇之星 - 幻想三国志4外传音乐CD.wav

     峰值电平 100.0 %
     范围质量 99.9 %
     复制 CRC AF951306
     复制成功

没有错误发生

状态报告结尾



专辑曲目

1.彩虹
2.春风拂日
3.踏溪游
4.幽梦魂
5.月临古城
6.暖玉生烟
7.十里云柳
8.天外云海
9.思念
10.关山难
11.夜行
12.少年志
13.诛仙曲
14.疾走
15.暗潮
16.铁骑震山
17灭神诀
18.与君同醉
19.彩虹 (karaoke version)
20.思念 (karaoke version)

正在读取……

这里是其它用户补充的资源(我也要补充):

暂无补充资源
正在加载,请稍等...

点击查看所有20网友评论

 

(?) [公告]留口水、评论相关规则 | [活动]每日签到 轻松领取电驴经验

    小贴士:
  1. 类似“顶”、“沙发”之类没有营养的文字,对勤劳贡献的楼主来说是令人沮丧的反馈信息。
  2. 提问之前请再仔细看一遍楼主的说明,或许是您遗漏了。
  3. 勿催片。请相信驴友们对分享是富有激情的,如果确有更新版本,您一定能搜索到。
  4. 请勿到处挖坑绊人、招贴广告。既占空间让人厌烦,又没人会搭理,于人于己都无利。
  5. 如果您发现自己的评论不见了,请参考以上4条。