v

您的位置:VeryCD动漫动漫周边

动漫资源事务区


《玛丽&伽利主题歌》(Marie & Gali)[Song&BGM ガリハバラ!][附BK][TTA+ISO](已传JS)

  • 状态: 精华资源
  • 摘要:
    发行时间2009年07月22日
  • 时间: 2010/04/27 04:26:02 发布 | 2010/04/30 00:52:59 更新
  • 分类: 动漫  动漫周边 

动漫驿站

精华资源: 11

全部资源: 16

相关: 分享到新浪微博   转播到腾讯微博   分享到开心网   分享到人人   分享到QQ空间   订阅本资源RSS更新   美味书签  subtitle
该内容尚未提供权利证明,无法提供下载。
中文名玛丽&伽利主题歌
英文名Marie & Gali
版本[Song&BGM ガリハバラ!][附BK][TTA+ISO](已传JS)
发行时间2009年07月22日
地区日本
简介

IPB Image

剧情介绍

去年2009年是世界天文年,纪念伽利略用天文望远镜首次观测天体后400周年

于是,东映动画便制做了这部原创科学动画《玛丽&伽利》

故事讲述了讨厌科学的MARIKA酱突然来到了专们对讨厌科学的孩子的伽利叶原(科学家就是广义上的OTAKU呀XD)结识了
“不务正业”,偶尔耍耍帅的——伽利略
会放“黄瓜Power”(龟派气功?呵呵)的——居里夫人
由于苹果,而发现了万有“魅”力(这个太赞了呀,世间万物都相互吸引着XD),一天到晚喊着“苹果‘酱’”,苹果不离身的“苹果白痴”——牛顿
破坏东西后又能完全复原,也爱搞发明创造的天才——达芬奇
小气又孩子气总是落后于贝尔的——爱迪生(贝尔没有正式出场,唯一一场和爱迪生追逐抢先注册电话专利的戏,脑袋做成了电话的样子,呵呵)
在爱迪生的电器屋打工,有时化身为拉面摊老板,转眼又成了以《Love线圈》(注)成名的Rap明星——佛来明
能够徒手接导弹,一旦发现什么就爆破衣服,露出一身肌肉,只穿着红色兜裆布,大喊着EUREKA(我明白了)到处跑的——阿基米德(这改编实在Good Job呀XD)
生物进化,最终进化成了靠在脑部装入电池供能还附带人妖属性的机器人——达尔文(电池装反的话,会退化为猿人,还是撞地,由于不会说话,由伽利略同步口译“呀,不要看逆进化的我。当不了新娘了”,最后开始刮腿毛XD)
用电波做兆赫面,特质盐拉面,以及吃下后,要是接手机,就会由于电波干涉,在肚子里乱动的百万赫兹拉面的——赫兹(后来还有,由于正反方向干涉抵消的零赫兹直杆面,被评价终于超越了居里夫人的面正高兴时,又被评价已经不是拉面了,呵呵)
后(好长的宾语呀,呵呵),发生的一系列有趣,好笑的故事。

档案原名

请自行修改,或利用eM的自带功能XD

[EAC] [20090722] 科学アニメ マリー&ガリー 主題歌 ガリハバラ! (tta+iso+bk+rr5).rar

专辑介绍

IPB Image

定価:1785円 (税込)
本体価格:1700円
组数:CD1枚+DVD1枚
演奏时间:00:16:36
発売日:2009年07月22日
贩売元:コロムビアミュージックエンタテインメント
规格番号:COZC-384

收录了原创科学TV动画《玛丽&伽利》的主题曲《ガリハバラ!(伽利叶原)》和插入曲《ラブコイル(LOVE线圈)》
以及由吉野裕司所做的背景音乐
附带先行放送的第0话DVD

Artists

1.歌:スウィング・メイツK/作词:もりちよこ/作・编曲:吉野裕司
2.歌:フレミング(菊池正美) with マリー(千叶千恵巳)&ガリー(チョー)/作词:山田隆司/作・编曲:吉野裕司
3~4.作・编曲:吉野裕司


收录曲目

DISC-1 CD

1-1 (1:50) ガリハバラ!フルサイズ
1-2 (1:00) ラブコイル フルサイズ
1-3 (6:48) マリー&ガリーBGMセレクション PART-1
1-4 (6:58) マリー&ガリーBGMセレクション PART-2

DISC-2 DVD

2-1 (5:06) 本編 パイロット版 0話

log

引用
Exact Audio Copy V0.99 prebeta 5 from 4. May 2009

EAC 取り込みログファイル 日付 : 16. 10月 2009, 20:01

Unknown Artist / Unknown Title

使用ドライブ : PIONEER DVD-RW DVR-215D Adapter: 4 ID: 0

読み込みモード : セキュアモード
ドライブが正確なデータ転送能力を持つ : はい
オーディオキャッシュを使用できる : はい
C2エラー情報を検出する : はい

読み込みサンプルオフセット訂正値 : 18
リードイン・リードアウトをオーバーリードする : いいえ
欠落したオフセットサンプルを無音で補完する : はい
曲の先頭と末端の無音領域を削除する : いいえ
CRC計算で無音のサンプルを使用するか : いいえ
使用インターフェース : Win NT & 2000用のクラスドライバ

使用出力モード : 内蔵WAV出力ルーチン
サンプルフォーマット : 44.100 Hz; 16 Bit; ステレオ


TOC情報を抜き出します

トラック | スタート | 長さ | 始めのセクター | 最終セクター
----------------------------------------------------------------
1 | 0:00.00 | 1:50.06 | 0 | 8255
2 | 1:50.06 | 1:01.63 | 8256 | 12893
3 | 2:51.69 | 6:49.36 | 12894 | 43604
4 | 9:41.30 | 6:58.69 | 43605 | 75023


範囲取り込みステータス & エラー

選択された範囲

ファイル名 D:\Unknown Artist - Unknown Title.wav

ピークレベル 99.9 %
範囲取り込み品質 100.0 %
コピーCRC 4F95F3C2
コピー OK

エラーは発生しませんでした

ステータス報告完了


◆JS链接◆

[永久空间] 科学アニメ『マリー&ガリー』主題歌「ガリハバラ!」(EAC・TTA+BK+ISO) [原档]

正在读取……

这里是其它用户补充的资源(我也要补充):

暂无补充资源
正在加载,请稍等...

点击查看所有14网友评论

 

(?) [公告]留口水、评论相关规则 | [活动]每日签到 轻松领取电驴经验

    小贴士:
  1. 类似“顶”、“沙发”之类没有营养的文字,对勤劳贡献的楼主来说是令人沮丧的反馈信息。
  2. 提问之前请再仔细看一遍楼主的说明,或许是您遗漏了。
  3. 勿催片。请相信驴友们对分享是富有激情的,如果确有更新版本,您一定能搜索到。
  4. 请勿到处挖坑绊人、招贴广告。既占空间让人厌烦,又没人会搭理,于人于己都无利。
  5. 如果您发现自己的评论不见了,请参考以上4条。