v

您的位置:VeryCD综艺纪录片

综艺资源事务区


《1969年美国性解放革命运动》(Sex In 1969 Sexual Revolution In America)[HDTV]

  • 状态: 精华资源
  • 摘要:
    发行时间2009年
    地区美国
    语言英语
  • 时间: 2010/04/01 19:59:44 发布 | 2010/04/05 20:23:32 更新
  • 分类: 综艺  纪录片 

sqhy113

精华资源: 328

全部资源: 360

相关: 分享到新浪微博   转播到腾讯微博   分享到开心网   分享到人人   分享到QQ空间   订阅本资源RSS更新   美味书签  subtitle
该内容尚未提供权利证明,无法提供下载。
中文名1969年美国性解放革命运动
英文名Sex In 1969 Sexual Revolution In America
资源格式HDTV
发行时间2009年
制作发行History Channel
地区美国
语言英语
简介

IPB Image

内容介绍:

  回溯1969年,那些人、那些事永远地改变了美国人的思考方式和性行为。观众可以从位于旧金山的花花公子阁楼到圣·佛朗西斯科的嬉皮坠毁垫、亚特兰大浮桥大西、迈阿密法庭以及其它一些地方,可以发现妇女和男子在新老价值观上的变化。其中有些人,像花花公子出版商休海夫纳、演员吉姆布朗和Ray曼扎莱克将会很出名,另外一些普通美国人则通过性变革作为60年画上了一个句号,但他们有一个共同点......

分享团队:HDLF高清雷锋

IPB Image

代码
General
Format                           : AVI
Format/Info                      : Audio Video Interleave
File size                        : 698 MiB
Duration                         : 1h 30mn
Overall bit rate                 : 1 081 Kbps
Writing application              : VirtualDubMod 1.5.4.1 (build 2178/release)
Writing library                  : VirtualDubMod build 2178/release

Video
ID                               : 0
Format                           : MPEG-4 Visual
Format profile                   : AdvancedSimple@L5
Format settings, BVOP            : Yes
Format settings, QPel            : No
Format settings, GMC             : No warppoints
Format settings, Matrix          : Default (H.263)
Muxing mode                      : Packed bitstream
Codec ID                         : XVID
Codec ID/Hint                    : XviD
Duration                         : 1h 30mn
Bit rate                         : 934 Kbps
Width                            : 624 pixels
Height                           : 352 pixels
Display aspect ratio             : 16:9
Frame rate                       : 29.970 fps
Resolution                       : 24 bits
Colorimetry                      : 4:2:0
Scan type                        : Progressive
Bits/(Pixel*Frame)               : 0.142
Stream size                      : 603 MiB (86%)
Writing library                  : XviD 1.2.0.dev47 (UTC 2006-11-01)

Audio
ID                               : 1
Format                           : MPEG Audio
Format version                   : Version 1
Format profile                   : Layer 3
Codec ID                         : 55
Codec ID/Hint                    : MP3
Duration                         : 1h 30mn
Bit rate mode                    : Variable
Bit rate                         : 134 Kbps
Nominal bit rate                 : 144 Kbps
Channel(s)                       : 2 channels
Sampling rate                    : 48.0 KHz
Resolution                       : 16 bits
Stream size                      : 86.3 MiB (12%)
Alignment                        : Aligned on interleaves
Interleave, duration             : 24 ms (0.72 video frame)
Interleave, preload duration     : 137 ms
Writing library                  : LAME3.97
Encoding settings                : -m j -V 4 -q 2 -lowpass 17.5 --abr 144

正在读取……

这里是其它用户补充的资源(我也要补充):

暂无补充资源
正在加载,请稍等...

点击查看所有141网友评论

该资源评论已被关闭