v

您的位置:VeryCD动漫OVA

动漫资源事务区


《机动战士高达独角兽/UC》(Kidou Senshi Gundam UC)[BD原盘][BDISO][日,英,法,西班牙,繁,简官方字幕][更新第2话BD原盘][1080P]

  • 状态: 精华资源
  • 摘要:
    发行时间2010年02月
    语言日语
  • 时间: 2010/03/25 20:54:27 发布 | 2010/11/28 11:51:24 更新
  • 分类: 动漫  OVA 

sweetdreamday

精华资源: 14

全部资源: 15

相关: 分享到新浪微博   转播到腾讯微博   分享到开心网   分享到人人   分享到QQ空间   订阅本资源RSS更新   美味书签  subtitle
该内容尚未提供权利证明,无法提供下载。
中文名机动战士高达独角兽/UC
英文名Kidou Senshi Gundam UC
资源格式1080P
版本[BD原盘][BDISO][日,英,法,西班牙,繁,简官方字幕][更新第2话BD原盘]
发行时间2010年02月
地区日本
语言日语
简介

IPB Image
【内容介绍】
高达独角兽》,中文全称为《机动战士高达独角兽》,日文原名为「机动戦士ガンダムユニコーン」动画版《高达UC》
  是由福井晴敏先生执笔,安彦良和先生担当人设,カトキハジメ(KATOKI HAJIME,角木 肇这个名字他本人不承认)先生担当机体设定的于2007年所推出的以U.C.时代(宇宙世纪)为时代背景的小说。在高达30周年纪念时(2009)公布动画化,后再公布为2010开始发售的OVA。
  《高达独角兽》时间轴设定在U.C.00 93年(夏亚叛乱,第二次新吉恩战争)与 U.C.0099年(月球危机)之间的U.C.96年。
  《高达独角兽》以地球联邦军的绝密计划为主线,描述了为争夺“拉普拉斯之箱”而使宇宙间再掀战火的故事。
  《高达独角兽》的男主角为正在AE社工业学校读书的16岁少年,巴纳吉·林克斯,女主角为新吉恩侧被称为公主的17岁少女,奥黛丽·本(实为旧吉恩公国次男多兹鲁·扎比之女,美耐巴·扎比)
  《高达独角兽》作为最新的宇宙世纪作品,其主角机为继承了GUNDAM 之名的 RX-0 独角兽高达
  《高达UC》至今已出单行本小说7卷
  1 机动战士高达UNICORN 独角兽之日(上)(机动戦士ガンダムUC 1 ユニコーンの日(上))
  2 机动战士高达UNICORN 独角兽之日(下)(机动戦士ガンダムUC 2 ユニコーンの日(下))
  3 机动战士高达UNICORN 赤色彗星(机动戦士ガンダムUC〈3〉赤い彗星)
  4 机动战士高达UNICORN 帕拉欧攻略战(机动戦士ガンダムUC (4) パラオ攻略戦)
  5 机动战士高达UNICORN 拉普拉斯之亡灵(机动戦士ガンダムユニコーン 5 ラプラスの亡霊)
  6 机动战士高达UNICORN 重力之井底?(机动戦士ガンダムユニコーン 6 重力の井戸の底で)
  7 机动战士高达UNICORN 黑之独角兽(机动戦士ガンダムユニコーン 7 黒いユニコーン)
  8 机动战士高达UNICORN 宇宙与星星 (机动戦士ガンダムユニコーン8 宇宙と惑星と)
  9 机动战士高达UNICORN 飞越彩虹(上) (机动戦士ガンダムユニコーン9 虹の彼方に(上))
  10 机动战士高达UNICORN 飞越彩虹(下) (机动戦士ガンダムユニコーン9 虹の彼方に(下))

=======================检验值==========================

引用
sha1值 : 6549b76c0970041d1d21b12ae4d89067a3287a3a
MD5值 : ed0e1722d46b3b9bd7097de4d950929a
CRC值 : ed46f106
HASH值 : 24102C864C80208C68AED31740B4A36D


引用
小水管上传比较慢....望见谅!

引用
General
ID : 0
Complete name : F:\BDMV\STREAM\00006.m2ts
Format : BDAV
Format/Info : Blu-ray Video
File size : 19.0 GiB
Duration : 57mn 57s
Overall bit rate : 47.0 Mbps
Maximum Overall bit rate : 48.0 Mbps

Video
ID : 4113 (0x1011)
Menu ID : 1 (0x1)
Format : AVC
Format/Info : Advanced Video Codec
Format profile : High@L4.1
Format settings, CABAC : Yes
Format settings, ReFrames : 4 frames
Duration : 57mn 57s
Bit rate : 42.5 Mbps
Width : 1 920 pixels
Height : 1 080 pixels
Display aspect ratio : 16:9
Frame rate : 23.976 fps
Resolution : 24 bits
Colorimetry : 4:2:0
Scan type : Progressive
Bits/(Pixel*Frame) : 0.855
Stream size : 17.2 GiB (91%)
colour_primaries : BT.709-5, BT.1361, IEC 61966-2-4, SMPTE RP177
transfer_characteristics : BT.709-5, BT.1361
matrix_coefficients : BT.709-5, BT.1361, IEC 61966-2-4 709, SMPTE RP177

Audio #1
ID : 4352 (0x1100)
Menu ID : 1 (0x1)
Format : AC-3
Format/Info : Audio Coding 3
Format profile : TrueHD
Duration : 57mn 57s
Bit rate mode : Variable
Bit rate : 640 Kbps
Channel(s) : 6 channels
Channel positions : Front: L C R, Surround: L R, LFE
Sampling rate : 48.0 KHz
Stream size : 265 MiB (1%)

Audio #2
ID : 4353 (0x1101)
Menu ID : 1 (0x1)
Format : AC-3
Format/Info : Audio Coding 3
Duration : 57mn 57s
Bit rate mode : Constant
Bit rate : 640 Kbps
Channel(s) : 2 channels
Channel positions : L R
Sampling rate : 48.0 KHz
Stream size : 265 MiB (1%)

Audio #3
ID : 4354 (0x1102)
Menu ID : 1 (0x1)
Format : AC-3
Format/Info : Audio Coding 3
Format profile : TrueHD
Duration : 57mn 57s
Bit rate mode : Variable
Bit rate : 640 Kbps
Channel(s) : 6 channels
Channel positions : Front: L C R, Surround: L R, LFE
Sampling rate : 48.0 KHz
Stream size : 265 MiB (1%)

Audio #4
ID : 4355 (0x1103)
Menu ID : 1 (0x1)
Format : AC-3
Format/Info : Audio Coding 3
Duration : 57mn 57s
Bit rate mode : Constant
Bit rate : 640 Kbps
Channel(s) : 2 channels
Channel positions : L R
Sampling rate : 48.0 KHz
Stream size : 265 MiB (1%)

Text #1
ID : 4608 (0x1200)
Menu ID : 1 (0x1)
Format : PGS
Video delay : 3s 211ms

Text #2
ID : 4609 (0x1201)
Menu ID : 1 (0x1)
Format : PGS
Video delay : 3s 128ms

Text #3
ID : 4610 (0x1202)
Menu ID : 1 (0x1)
Format : PGS
Video delay : 3s 211ms

Text #4
ID : 4611 (0x1203)
Menu ID : 1 (0x1)
Format : PGS
Video delay : 3s 128ms

Text #5
ID : 4612 (0x1204)
Menu ID : 1 (0x1)
Format : PGS
Video delay : 3s 378ms

Text #6
ID : 4613 (0x1205)
Menu ID : 1 (0x1)
Format : PGS
Video delay : 3s 378ms

引用
Server : eDonkeyServer No2 , ed2k://|server|212.63.206.35|4242|/
星期一至五4点开始补源 !! 星期六至日10点开始补源 !!
<X-Ray强力发佈>
90KB/s上传速度


引用
连载中粤语高清动漫:
噬魂师 720P http://www.VeryCD.com/topics/2828399/
钢之炼金术师2009 1080P http://www.VeryCD.com/topics/2759902/
幸运女神http://www.VeryCD.com/topics/2866970
黑执事II 720P http://www.VeryCD.com/topics/2838795/
美少女战士 576i http://www.VeryCD.com/topics/2842652/
K-ON! 1080P http://www.VeryCD.com/topics/2763730

已完结粤语高清动漫:
福音战士新剧场版:破 1080P http://www.VeryCD.com/topics/2831263/
东之伊甸 1080P http://www.VeryCD.com/topics/2842090/

下期粤语高清动漫:
福音战士新剧场版:序 1080P
机动战士高达独角兽/UC Vol.3


引用
更多高清动漫可到 Blu-ray 蓝 光 动 漫


IPB Image

正在读取……

这里是其它用户补充的资源(我也要补充):

暂无补充资源
正在加载,请稍等...

点击查看所有170网友评论

 

(?) [公告]留口水、评论相关规则 | [活动]每日签到 轻松领取电驴经验

    小贴士:
  1. 类似“顶”、“沙发”之类没有营养的文字,对勤劳贡献的楼主来说是令人沮丧的反馈信息。
  2. 提问之前请再仔细看一遍楼主的说明,或许是您遗漏了。
  3. 勿催片。请相信驴友们对分享是富有激情的,如果确有更新版本,您一定能搜索到。
  4. 请勿到处挖坑绊人、招贴广告。既占空间让人厌烦,又没人会搭理,于人于己都无利。
  5. 如果您发现自己的评论不见了,请参考以上4条。