v

您的位置:VeryCD综艺纪录片

综艺资源事务区


《微速摄影:流逝的大自然》(Nature Time Lapse)补第1部[Youtube日本分舵自然摄影部门年度金奖][720P]

  • 状态: 精华资源
  • 摘要:
    发行时间2009年
    地区日本
  • 时间: 2010/03/25 00:53:29 发布 | 2011/06/09 22:26:23 更新
  • 分类: 综艺  纪录片 

life_is_good

精华资源: 6571

全部资源: 7301

相关: 分享到新浪微博   转播到腾讯微博   分享到开心网   分享到人人   分享到QQ空间   订阅本资源RSS更新   美味书签  subtitle
该内容尚未提供权利证明,无法提供下载。
中文名微速摄影:流逝的大自然
英文名Nature Time Lapse
资源格式720P
版本补第1部[Youtube日本分舵自然摄影部门年度金奖]
发行时间2009年
制作发行mockmoon
地区日本
简介

IPB Image
(海报来自网络,非实际截图,截图请参见简介下方,视频尺寸1280x720)

详细介绍:
“日本摄影师mockmoon在日本各地拍摄的延时摄影视频合集。
mockmoon 从09年的八月在日本各地拍摄,直到12月完成了这段美丽的视频。今年年初这段视频获得了youtube日本分舵年度金奖(自然摄影部门)。 mockmoon君还拍过不少延时摄影的作品。”

剪辑内容使用如CANON 5DMARK2等顶级单反相机微速拍摄而来,号称躺在床上也能欣赏世界级美景,并配以唯美背景音乐,实在是最佳的治愈系影片。(简介转自willa@HDC)

引用
本片为日本摄影师Mockmoon在日本各地拍摄的大自然延时摄影(Nature Time Lapse),这段视频获得了Youtube日本分舵自然摄影部门年度金奖。摄影师Mockmoon从09年8月起在日本山区游走,用延时摄影术拍摄了大量自然风光,他的足迹遍布长野、群马山区,最远到了南方的鹿儿岛拍摄日食,直到12月才最终完成了这段美丽的视频。远山、静水、星空、银河、薄雾、流云、天狗食月,配上安静的钢琴(曲子不详,觉得耳熟的请奋不顾身跳出来补充)。最适合一个人静静地观看,从心底赞叹并敬畏大自然的美丽与神奇。(简介转自kosmos@blogbus)




IPB Image

代码
码率信息:
C:\Download\Nature Time Lapse\Nature Time Lapse 2 -微速度撮影动画まとめ2- (HD 720p).mp4
  General
     Complete name : C:\Download\Nature Time Lapse\Nature Time Lapse 2 -微速度撮影动画まとめ2- (HD 720p).mp4
     Format : MPEG-4
     Format profile : Base Media / Version 2
     Codec ID : mp42
     File size : 119 MiB
     Duration : 7mn 47s
     Overall bit rate : 2 126 Kbps
     Encoded date : UTC 2009-07-06 02:31:51
     Tagged date : UTC 2009-07-06 02:31:51
     gsst : 0
     gstd : 468508
     gssd : B4A7D67C5HH
     gshh : v9.lscache8.c.youtube.com
  Video #2
     ID : 2
     Format : AVC
     Format/Info : Advanced Video Codec
     Format profile : High@L3.1
     Format settings, CABAC : Yes
     Format settings, ReFrames : 3 frames
     Codec ID : avc1
     Codec ID/Info : Advanced Video Coding
     Duration : 7mn 47s
     Bit rate mode : Variable
     Bit rate : 1 998 Kbps
     Maximum bit rate : 3 289 Kbps
     Width : 1 280 pixels
     Height : 720 pixels
     Display aspect ratio : 16:9
     Frame rate mode : Constant
     Frame rate : 29.970 fps
     Resolution : 24 bits
     Colorimetry : 4:2:0
     Scan type : Progressive
     Bits/(Pixel*Frame) : 0.072
     Stream size : 111 MiB (94%)
     Title : (C) 2007 Google Inc. v08.13.2007.
     Encoded date : UTC 2009-07-06 02:31:52
     Tagged date : UTC 2009-07-06 02:32:02
  Audio #1
     ID : 1
     Format : AAC
     Format/Info : Advanced Audio Codec
     Format version : Version 4
     Format profile : LC
     Format settings, SBR : No
     Codec ID : 40
     Duration : 7mn 47s
     Bit rate mode : Variable
     Bit rate : 125 Kbps
     Maximum bit rate : 148 Kbps
     Channel(s) : 2 channels
     Channel positions : L R
     Sampling rate : 44.1 KHz
     Resolution : 16 bits
     Stream size : 7.01 MiB (6%)
     Title : (C) 2007 Google Inc. v08.13.2007.
     Encoded date : UTC 2009-07-06 02:31:51
     Tagged date : UTC 2009-07-06 02:32:02

正在读取……

这里是其它用户补充的资源(我也要补充):

GZsonny 2010/05/17 23:10:50 补充
第一部就别等了,去作者网页上看了,确实惨不忍睹。送另外两个高清短片吧

该内容尚未提供权利证明,无法提供下载。

lupto 2011/04/03 00:32:05 补充
第一部720p版本已补充

该内容尚未提供权利证明,无法提供下载。

lupto 2011/08/30 23:43:41 补充
豪华合集奉上:http://www.gokuai.com/f/ht5X7ichzwx33dy1

该内容尚未提供权利证明,无法提供下载。
正在加载,请稍等...

点击查看所有256网友评论

 

(?) [公告]留口水、评论相关规则 | [活动]每日签到 轻松领取电驴经验

    小贴士:
  1. 类似“顶”、“沙发”之类没有营养的文字,对勤劳贡献的楼主来说是令人沮丧的反馈信息。
  2. 提问之前请再仔细看一遍楼主的说明,或许是您遗漏了。
  3. 勿催片。请相信驴友们对分享是富有激情的,如果确有更新版本,您一定能搜索到。
  4. 请勿到处挖坑绊人、招贴广告。既占空间让人厌烦,又没人会搭理,于人于己都无利。
  5. 如果您发现自己的评论不见了,请参考以上4条。