v

您的位置:VeryCD综艺纪录片

综艺资源事务区


《现代石油启示录》(Oil Apocalypse Now?)[TVRip]

  • 状态: 精华资源
  • 摘要:
    发行时间2008年09月15日
    地区加拿大
    语言英语
  • 时间: 2010/03/23 18:35:16 发布 | 2010/03/26 09:40:35 更新
  • 分类: 综艺  纪录片 

Deadknot

精华资源: 47

全部资源: 50

相关: 分享到新浪微博   转播到腾讯微博   分享到开心网   分享到人人   分享到QQ空间   订阅本资源RSS更新   美味书签  subtitle
该内容尚未提供权利证明,无法提供下载。
中文名现代石油启示录
英文名Oil Apocalypse Now?
资源格式TVRip
发行时间2008年09月15日
制作发行CBC Documentaries
地区加拿大
语言英语
简介

IPB Image

◎译  名 现代石油启示录
◎片  名 Oil Apocalypse Now?
◎年  代 2008
◎国  家 加拿大
◎类  别 纪录片
◎语  言 英语
◎字  幕 N/A
◎国  家 美国
◎对白语言 英语
◎视频码率 2297kpbs
◎视频尺寸 720 x 400
◎文件大小 1CD
◎片  长 41 Mins
◎导  演 Andrew Evans

◎简  介 

过去的几年当中(2008年前),石油价格翻了三番,为什么会这样?这其中会不会有某种掩盖真相的阴谋?有的人说美元的贬值导致了油价上涨;也有人说投机商囤积居奇,在背后左右着石油价格。现在,另一种声音正在日益壮大:供给关系的变化在驱动着石油价格的飞涨。这些人认为,随着石油的供给量的减少、开采新油田的成本的上升,世界将要面临更加严重的石油紧缺和油价上涨。影片Oil Apocalypse Now?(现代石油启示录),将试图从各种传闻当中抽抽丝剥茧,找到真相。

该片历时4年,取景13个国家和地区,选编了30多位在国际石油市场或者政治舞台上有影响力的任务的访谈内容,受访者从各自的观点出发力图为观众揭示未来世界石油供给的前景。

Shot in 13 countries over a four-year period, Oil Apocalypse Now? reveals the myths and conspiracy theories surrounding the future of our world's oil supplies. It includes interviews with over 30 of the most influential people on both sides of the argument to examine if the oil age is coming to an end.

Is there a conspiracy of silence to keep the truth from us? In the last four years world oil prices have tripled. Why? One school of thought blames the weak U.S. dollar. Others say commodity speculators are behind the rocketing oil prices. There is a third voice growing in strength that points to another reason - supply and demand are driving prices up. As supplies diminish and production becomes more expensive, the world faces even higher prices and perhaps the collapse of global production. Then there's talk of missing OPEC barrels. Oil Apocalypse Now? tries to separate the facts from fiction.

Everyone agrees that if oil production is going to increase it will have to come from the group of 13 oil producing countries known as OPEC. But can OPEC really do it? We meet the men in power and find out that all may not be as it seems. Travelling to Kuwait the documentary team uncovers exclusive evidence that world oil reserves may be exaggerated by up to 50%.

But fears about our oil supplies aren't limited to missing OPEC barrels. Travelling to the U.S. Oil Apocalypse Now? examines arguments from The Association for the Study of Peak Oil, a group of industry insiders who've been warning of a coming Oil apocalypse for over 30 years. Through fascinating archives, viewers are able to look back at the oil shocks from the 1970's, when prices shot up but then fell back again. Is this time any different? What are the implications if oil prices continue to increase? What are we doing about it and what are the alternatives to our heavy dependence on oil?

代码
Complete name : Oil.Apocalypse.Now.xvid.mp3.avi
      Format : AVI
      Format/Info : Audio Video Interleave
      File size : 686 MiB
      Duration : 41mn 44s
      Overall bit rate : 2 297 Kbps
      Writing application : VirtualDubMod 1.5.4.1 (build 2178/release)
      Writing library : VirtualDubMod build 2178/release
   Video #0
      ID : 0
      Format : MPEG-4 Visual
      Format profile : AdvancedSimple@L5
      Format settings, BVOP : Yes
      Format settings, QPel : No
      Format settings, GMC : No warppoints
      Format settings, Matrix : Custom
      Codec ID : XVID
      Codec ID/Hint : XviD
      Duration : 41mn 44s
      Bit rate : 2 160 Kbps
      Width : 720 pixels
      Height : 400 pixels
      Display aspect ratio : 16:9
      Frame rate : 29.970 fps
      Resolution : 24 bits
      Colorimetry : 4:2:0
      Scan type : Progressive
      Bits/(Pixel*Frame) : 0.250
      Stream size : 645 MiB (94%)
      Writing library : XviD 1.2.1 (UTC 2008-12-04)
   Audio #1
      ID : 1
      Format : MPEG Audio
      Format version : Version 1
      Format profile : Layer 3
      Codec ID : 55
      Codec ID/Hint : MP3
      Duration : 41mn 44s
      Bit rate mode : Constant
      Bit rate : 128 Kbps
      Channel(s) : 2 channels
      Sampling rate : 48.0 KHz
      Resolution : 16 bits
      Stream size : 38.2 MiB (6%)
      Alignment : Aligned on interleaves
      Interleave, duration : 67 ms (2.00 video frames)
      Interleave, preload duration : 504 ms
      Writing library : LAME3.98r
      Encoding settings : -m j -V 4 -q 2 -lowpass 17 -b 128


◎剧 照
 
IPB Image
IPB Image
IPB Image
IPB Image

正在读取……

这里是其它用户补充的资源(我也要补充):

暂无补充资源
正在加载,请稍等...

点击查看所有13网友评论

 

(?) [公告]留口水、评论相关规则 | [活动]每日签到 轻松领取电驴经验

    小贴士:
  1. 类似“顶”、“沙发”之类没有营养的文字,对勤劳贡献的楼主来说是令人沮丧的反馈信息。
  2. 提问之前请再仔细看一遍楼主的说明,或许是您遗漏了。
  3. 勿催片。请相信驴友们对分享是富有激情的,如果确有更新版本,您一定能搜索到。
  4. 请勿到处挖坑绊人、招贴广告。既占空间让人厌烦,又没人会搭理,于人于己都无利。
  5. 如果您发现自己的评论不见了,请参考以上4条。