v

您的位置:VeryCD综艺纪录片

综艺资源事务区


《儿童教育之战》(The War On Kids)[DVDRip]

  • 状态: 精华资源
  • 摘要:
    发行时间2009年
    地区美国
    语言英语
  • 时间: 2010/03/22 13:44:36 发布 | 2010/03/23 11:37:36 更新
  • 分类: 综艺  纪录片 

Deadknot

精华资源: 47

全部资源: 50

相关: 分享到新浪微博   转播到腾讯微博   分享到开心网   分享到人人   分享到QQ空间   订阅本资源RSS更新   美味书签  subtitle
该内容尚未提供权利证明,无法提供下载。
中文名儿童教育之战
英文名The War On Kids
资源格式DVDRip
发行时间2009年
制作发行Spectacle Films, Inc.
地区美国
语言英语
简介

IPB Image

◎译  名 儿童教育之战
◎片  名 The War On Kids
◎年  代 2009
◎国  家 美国
◎类  别 纪录片
◎语  言 英语
◎字  幕 N/A
◎IMDB评分 8.3/10 38 votes
◎IMDB链接 http://www.imdb.com/title/tt1505145/
◎国  家 美国
◎对白语言 英语
◎视频码率 5320kpbs
◎视频尺寸 640 x 360
◎文件大小 1CD
◎片  长 95 Mins
◎导 演 Cevin Soling

◎简  介 
该片在2009年的纽约独立电影节中获得了最佳教育片奖。该片导演Cevin Soling还曾凭借影片THE WAR ON THE WAR ON DRUGS在纽约独立电影节中获得了最佳实验电影奖。

很多人都习惯将美国未成年教育中存在的问题归咎于教育金费的不足或者当代未成年人道德水平的下降,很少有人把责任归咎到学校、老师、家长或者当局等环节的失职。人们往往忽略了最关键的问题,那就是如果不重视教育系统本身的问题所在,再多的改进措施也会注定失败。

这部电影从很多方面揭露了美国的公立学校剥夺未成年人自由的行径。在很多公立学校,孩子们必须接受监狱式的管教,忍受各种专横的惩罚,甚至是接受一些有危险的药物治疗。这一切的问题都源于90年代,美国很多学校推行的"zero tolerance"(零限度容忍)政策,该政策本身是为了杜绝校园里日渐泛滥的毒品和枪支,可是发展到后来,就演变成了一种对未成年人专横残酷的控制。很多未成年人被学校开除,仅仅因为他们曾经在玩耍的时候用指甲刀、玩具枪、钥匙链、甚至是鸡翅膀当做枪支,向自己的伙伴“开枪”。而很多学生都在采访中描述过自己曾经无故被搜身、体罚、接受强制性药检,甚至被拘捕的经历。很多教育家们开始为美国的未来感到担忧,他们认为现行的教育制度可能会侵蚀未成年人的民主意识,最终培养出一代缺乏勇气和创造力的“囚徒”。————deadknot原创文字,仅限VeryCD内部交流

代码

General
      Complete name : D:\OneBigTorrent\The War on Kids\The War on Kids\The War on Kids.avi
      Format : AVI
      Format/Info : Audio Video Interleave
      File size : 686 MiB
      Duration : 1h 35mn
      Overall bit rate : 1 002 Kbps
   Video #0
      ID : 0
      Format : MPEG-4 Visual
      Format settings, BVOP : Yes
      Format settings, QPel : No
      Format settings, GMC : No warppoints
      Format settings, Matrix : Default (H.263)
      Muxing mode : Packed bitstream
      Codec ID : DX50
      Codec ID/Hint : DivX 5
      Duration : 1h 35mn
      Bit rate : 830 Kbps
      Width : 640 pixels
      Height : 360 pixels
      Display aspect ratio : 16:9
      Frame rate : 29.970 fps
      Resolution : 24 bits
      Colorimetry : 4:2:0
      Scan type : Progressive
      Bits/(Pixel*Frame) : 0.120
      Stream size : 568 MiB (83%)
      Writing library : DivX 6.8.4
   Audio #1
      ID : 1
      Format : MPEG Audio
      Format version : Version 1
      Format profile : Layer 3
      Codec ID : 55
      Codec ID/Hint : MP3
      Duration : 1h 35mn
      Bit rate mode : Constant
      Bit rate : 160 Kbps
      Channel(s) : 2 channels
      Sampling rate : 44.1 KHz
      Resolution : 16 bits
      Stream size : 110 MiB (16%)
      Alignment : Split accross interleaves
      Interleave, duration : 33 ms (1.00 video frame)
      Title : Audio Stream


◎剧  照


IPB Image
IPB Image
IPB Image
IPB Image

正在读取……

这里是其它用户补充的资源(我也要补充):

暂无补充资源
正在加载,请稍等...

点击查看所有24网友评论

 

(?) [公告]留口水、评论相关规则 | [活动]每日签到 轻松领取电驴经验

    小贴士:
  1. 类似“顶”、“沙发”之类没有营养的文字,对勤劳贡献的楼主来说是令人沮丧的反馈信息。
  2. 提问之前请再仔细看一遍楼主的说明,或许是您遗漏了。
  3. 勿催片。请相信驴友们对分享是富有激情的,如果确有更新版本,您一定能搜索到。
  4. 请勿到处挖坑绊人、招贴广告。既占空间让人厌烦,又没人会搭理,于人于己都无利。
  5. 如果您发现自己的评论不见了,请参考以上4条。