v

您的位置:VeryCD动漫剧场动画

动漫资源事务区


《名侦探柯南剧场版2002:贝克街的亡灵》(Detective Conan 2002 The Phantom Of Baker Street)[DVDRip]

  • 状态: 精华资源
  • 摘要:
    发行时间2002年
    语言日语
  • 时间: 2010/03/19 17:19:37 发布 | 2010/03/19 19:46:01 更新
  • 分类: 动漫  剧场动画 

life_is_good

精华资源: 6571

全部资源: 7301

相关: 分享到新浪微博   转播到腾讯微博   分享到开心网   分享到人人   分享到QQ空间   订阅本资源RSS更新   美味书签  subtitle
该内容尚未提供权利证明,无法提供下载。
中文名名侦探柯南剧场版2002:贝克街的亡灵
英文名Detective Conan 2002 The Phantom Of Baker Street
资源格式DVDRip
发行时间2002年
地区日本
语言日语
简介

IPB Image

【片名】名侦探柯南剧场版2002:贝克街的亡灵
【字幕】日语配音 外挂SUBS英文
【格式】DVDRIP / SCENE 2010.03.19


【动画介绍】

东京·米花市·米花市政大楼,这里正在举行,能够一举改变全世界游戏业界价值观的模拟游戏「茧」的发表会。结合了最先进技术的「茧」,其游戏方式是先进入一部外型酷似蚕茧的大型胶囊,透过计算机的操作让游戏者沉睡于历史上曾经发生过事件的时代,并进行挑战的虚拟体验游戏。柯南、小兰、灰原以及少年侦探队的成员们也接获邀请,前往参加这场受到全世界瞩目的发表会,并阴错阳差的混入政界、财经界以及演艺界等代表人物的小孩群中,趁机乘上了「茧」。另一方面,「茧」的研发者兼负责人—坚村,竟然在发表会会场遭到杀害。而在这起杀人事件发生的同时,一个自称「诺亚方舟」的人工智能闯入「茧」的计算机系统,并切断身处虚拟世界的50名孩童所有能与外界连结的管道,对现实世界中所有的招待者宣布:「在这场解决历史事件的游戏中,只要有一个人能够存活到最后就算你们赢。不过如果没有人能够存活到最后,参加游戏的所有人就会葬命于此。」开始了一场失控的游戏……

少数知道柯南身份,同时也是工藤新一的父亲,世界名推理作家—工藤优作也是这场发表会的特别来宾。优作负责监修「茧」游戏中的历史事件,虽然能透过推理找出坚村遭到杀害的原因,但关于柯南一行人,他只能在控制室看着他们的表现。柯南一行人必须在「茧」所设定重现的19世纪伦敦贝克街,同时也是福尔摩斯留下无数传说之地,挑战一连串的考验。一场结合虚拟实境与现实,用50条生命为赌注的游戏即将开始!

【STAFF】
高山南 Minami Takayama ....Conan Edogawa (voice)
山口胜平 Kappei Yamaguchi ....Shinichi Kudo (voice)
山崎和佳奈 Wakana Yamazaki ....Ran Mohri (voice)
爱河里花子 Rikako Aikawa ....Noboru Emori (voice)
茶风林 F?rin Cha ....Inspector Megure (voice) (as Chafurin)
Jou Fujimoto ....Sebastian Moran (voice)
Kei Hayami ....Mrs. Hudson (voice)
速水奖 Sh? Hayami ....Jack The Ripper (voice)
林原惠美 Megumi Hayashibara ....Ai Haibara (voice)
平田广明 Hiroaki Hirata ....Tadaaki Kashimura (voice)
井上和彦 Kazuhiko Inoue ....Inspector Shiratori (voice)
岩居由希子 Yukiko Iwai ....Ayumi Yoshida (voice)
神谷明 Akira Kamiya ....Kogoroh Mohri (voice)
小林清志 Kiyoshi Kobayashi ....James Moriarty (voice)
松井菜樱子 Naoko Matsui ....Sonoko Suzuki (voice)
绪方贤一 Kenichi Ogata ....Doctor Agatha (voice)
绪方惠美 Megumi Ogata ....Hideki Moroboshi (voice)
大谷育江 Ikue Ootani ....Mitsuhiko Tsuburaya (voice)
折笠爱 Ai Orikasa ....Hiroki Sawada (voice)
斋贺美月 Mitsuki Saiga ....Seiichiro Kikukawa (voice)
岛本须美 Sumi Shimamoto ....Irene Adler (voice)
高木涉 Wataru Takagi ....Genta Kojima (voice)
高乃丽 Urara Takano ....Shinya Takizawa (voice)
田中秀幸 Hideyuki Tanaka ....Yuusaku Kudo (voice)
津嘉山正种 Masatane Tsukayama ....Thomas Schindler (voice)

【CAST】
导  演 儿玉兼嗣 Kanetsugu Kodama
编  剧 青山刚昌 Gôshô Aoyama 野泽尚 Hisashi Nozawa
制 作 人 Mitomu Asai
      小岛哲 Tetsu Kojima
      Tomoyuki Saito
      诹访道彦 Michihiko Suwa
       Masahito Yoshioka

代码
SPRiNTER proudly presents...

Detective.Conan.The.Phantom.Of.Baker.Street.2002.DVDRip.XviD-SPRiNTER
http://www.imdb.com/title/tt0990372/
Subtitles: English
Date: 2010.03

Director : Kanetsugu Kodama
Genre : Animation | Adventure | Mystery
Plot: Conan and his friends were invited to the premier of an new virtual computer game.
But someone programmed the game, that if they can't answer the riddle in the game, they all
have to die.


Cast:

Rikako Aikawa ...  Noboru Emori (voice)
Laura Bailey ...  Serena Sebastian (voice: English version)
F鹯in Cha ...  Inspector Megure (as Chafurin)
Colleen Clinkenbeard ...  Rachel Moore (voice: English version)
Cynthia Cranz ...  Mitch Tennison (voice: English version)
R. Bruce Elliott ...  Richard Moore (voice: English version)
Bill Flynn ...  Dr. Hershel Agasa (voice: English version)
Jou Fujimoto ...  Sebastian Moran (voice)
Kei Hayami ...  Mrs. Hudson (voice)



Release Notes:
Enjoy!


Stats:
Format                          : AVI
Format/Info                      : Audio Video Interleave
File size                        : 698 MiB
Duration                        : 1h 48mn
Overall bit rate                : 900 Kbps
Writing application              : Nandub v1.0rc2
Writing library                  : Nandub build 1852/release

Video
ID                              : 0
Format                          : MPEG-4 Visual
Format profile                  : Advanced Simple@L5
Format settings, BVOP            : Yes
Format settings, QPel            : No
Format settings, GMC            : No warppoints
Format settings, Matrix          : Default (H.263)
Muxing mode                      : Packed bitstream
Codec ID                        : XVID
Codec ID/Hint                    : XviD
Duration                        : 1h 48mn
Bit rate                        : 757 Kbps
Width                            : 608 pixels
Height                          : 336 pixels
Display aspect ratio            : 16:9
Frame rate                      : 23.976 fps
Resolution                      : 8 bits
Colorimetry                      : 4:2:0
Scan type                        : Progressive
Bits/(Pixel*Frame)              : 0.155
Stream size                      : 587 MiB (84%)
Writing library                  : XviD 1.2.1 (UTC 2008-12-04)

Audio
ID                              : 1
Format                          : MPEG Audio
Format version                  : Version 1
Format profile                  : Layer 3
Mode                            : Joint stereo
Format_Settings_ModeExtension    : MS Stereo
Codec ID                        : 55
Codec ID/Hint                    : MP3
Duration                        : 1h 48mn
Bit rate mode                    : Variable
Bit rate                        : 130 Kbps
Nominal bit rate                : 128 Kbps
Channel(s)                      : 2 channels
Sampling rate                    : 48.0 KHz
Video delay                      : 4s 488ms
Stream size                      : 101 MiB (14%)
Alignment                        : Split accross interleaves
Interleave, duration            : 24 ms (0.58 video frame)
Interleave, preload duration    : 1415 ms
Writing library                  : LAME3.90.
Encoding settings                : -m j -V 4 -q 2 -lowpass 17.6 --abr 128

正在读取……

这里是其它用户补充的资源(我也要补充):

暂无补充资源
正在加载,请稍等...

点击查看所有30网友评论

 

(?) [公告]留口水、评论相关规则 | [活动]每日签到 轻松领取电驴经验

    小贴士:
  1. 类似“顶”、“沙发”之类没有营养的文字,对勤劳贡献的楼主来说是令人沮丧的反馈信息。
  2. 提问之前请再仔细看一遍楼主的说明,或许是您遗漏了。
  3. 勿催片。请相信驴友们对分享是富有激情的,如果确有更新版本,您一定能搜索到。
  4. 请勿到处挖坑绊人、招贴广告。既占空间让人厌烦,又没人会搭理,于人于己都无利。
  5. 如果您发现自己的评论不见了,请参考以上4条。