v

您的位置:VeryCD动漫动漫周边

动漫资源事务区


《海贼王10周年纪念33首全原声集》(ONE PIECE)[ONE PIECE MEMORIAL BEST][OPFANS枫雪动漫有爱发布][附BK][TAK+MP3(320Kbps)]

  • 状态: 精华资源
  • 摘要:
    发行时间2010年03月17日
    对白语言日语
    文字语言日文
  • 时间: 2010/03/18 21:44:54 发布 | 2010/03/22 17:17:12 更新
  • 分类: 动漫  动漫周边 

csbeyond

精华资源: 179

全部资源: 180

相关: 分享到新浪微博   转播到腾讯微博   分享到开心网   分享到人人   分享到QQ空间   订阅本资源RSS更新   美味书签  subtitle
该内容尚未提供权利证明,无法提供下载。
中文名海贼王10周年纪念33首全原声集
英文名ONE PIECE
版本[ONE PIECE MEMORIAL BEST][OPFANS枫雪动漫有爱发布][附BK][TAK+MP3(320Kbps)]
发行时间2010年03月17日
地区日本
对白语言日语
文字语言日文
简介

IPB Image

更新无损了 哈哈 附BK



【简介】


于1999年开始正式放送的TV动画作品《海贼王 ONE PIECE》,已经经过了10个年头,为了纪念10周年,官方举办了各种各样的活动,就连剧场版也请来尾田老师亲自担任监督来制作。这次官方同样是为了纪念《海贼王 ONE PIECE》10周年,即将发售《ONE PIECE MEMORIAL BEST》CD作品,在CD中,将包括了《海贼王 ONE PIECE》这10年来全部的主题歌、插入歌,总共达到33首。

此外,本次的初回限定版中,将特别附赠DVD光盘,DVD中包含有第4话,与香客斯相会的名场面约30分钟的内容,此外还有无字幕版的OP&ED动画(预订31曲),而TV动画《海贼王 ONE PIECE》总集篇也将一同收录。

【专辑介绍】

ONE PIECE MEMORIAL BEST

IPB Image

CD+DVD初回限定盘
価格:3,990円(税込)
発売日:2010/03/17
商品番号:AVCA 29700
通常盘
価格:3360円(税込)
発売日:2010/03/17
商品番号:AVCA 29702
cレーベル:avex mode

【CD収录曲】

DISC-1
・ウィーアー!/きただにひろし(楽曲协力:コロムビアミュージックエンタテインメント)
・Believe / Folder5
・ヒカリヘ / ザ・ベイビースターズ(楽曲协力:キューンレコード)
・BON VOYAGE!/ BON-BON BLANCO(楽曲协力:コロムビアミュージックエンタテインメント)
・ココロのちず / BOYSTYLE(楽曲协力:インペリアルレコード)
・BRAND NEW WORLD / D-51(楽曲协力:ポニーキャニオン)
・ウィーアー!~7人の麦わら海贼団篇~ / 7人の麦わら海贼団
・Crazy Rainbow / タッキー&翼(初収录楽曲)
・Jungle P / 5050(フィフティーフィフティー)(初収录楽曲)
・ウィーアー!(~アニメーション ワンピース 10周年Ver.~)/ 东方神起(初収录楽曲)
・Share The World / 东方神起(初収录楽曲)
・风をさがして / 矢口真里とストローハット(初収录楽曲)
・memories / 大槻真希(楽曲协力:エピックレコードジャパン)
・RUN!RUN!RUN! / 大槻真希(楽曲协力:エピックレコードジャパン)
・私がいるよ / トマトキューブ(楽曲协力:ワーナーミュージックジャパン)
・しょうちのすけ / 推定少女(楽曲协力:エピックレコードジャパン)
DISC-2
・BEFORE DAWN / AI-SACHI
・fish / The Kaleidoscope
・GLORY-君がいるから- / 上原多香子
・Shining ray / Janne Da Arc
・Free Will / Ruppina
・FAITH / Ruppina
・A to Z~ONE[/b] PIECE[/b] Edition~ / ZZ
・月と太阳 / shela
・DREAM SHIP / イクタ☆アイコ
・未来航海 / タッキー&翼
・エターナルポーズ / エイジアエンジニア
・Dear friends / TRIPLANE
・明日はくるから / 东方神起
・ADVENTURE WORLD / デリカテッセン
・Family / 7人の麦わら海贼団
・ビンクスの酒 / 9人の麦わら海贼団
・A THOUSAND DREAMERS~9人の麦わら海贼団篇~ / 9人の麦わら海贼団
初回生产限定
●三方背BOX仕様
●同捆特典:ブックレット(40P予定)
アーティストについて
※DVD収录内容※
01.
“ルフィの冒険は、ここからはじまった”
幼きルフィが交わすシャンクスとの约束が描かれている
第4话「ルフィの过去! 赤髪のシャンクス登场」を収录!
02.
歴代のノンクレジット・オープニング&エンディング映像(全31曲)を収录!
※现在放送中の「风をさがして」まで
03.
麦わらの一味の出会いから现在までの冒険を振り返るべく、
全シーズンのプロモーション映像を収录!
※现在放送中のインペルダウン篇まで
永続同捆特典:ブックレット40P
IPB Image
IPB Image


代码:

代码
Exact Audio Copy V0.99 prebeta 1 from 25. May 2007
EAC 抓取日志文件从22. 三月 2010, 14:54
未知艺术家 / 未知标题
使用驱动器  :ADMXARC 6B4LYVCT   Adapter: 3  ID: 0
读取模式     : 保护
使用精确流   : 是
废除音频缓冲 : 是
使用 C2 指针 : 否
读取偏移校正                   : 0
读取 Lead-In 和 Lead-Out       : 否
用静音填充抓取中丢失偏移的采样 : 是
去除首尾静音块                 : 否
已用接口                       : Win NT 及 2000 本地 Win32 接口
所用输出格式   : 用户定义的编码器
已选比特率     : 1024 kBit/s
质量           : 高
添加 ID3 标签  : 是
命令行压缩器   : C:\Users\csbeyond\Downloads\TAK_1.1.1\Applications\Takc.exe
附加命令行参数 : -e -p2 %s %d
被抓轨 CD 的 TOC
音轨 |   开始   |   长度   | 起始扇区 | 结尾扇区
--------------------------------------------------
1  |  0:00.00 |  4:01.06 |       0  |   18080  
2  |  4:01.06 |  3:48.29 |   18081  |   35209  
3  |  7:49.35 |  3:44.72 |   35210  |   52081  
4  | 11:34.32 |  4:30.03 |   52082  |   72334  
5  | 16:04.35 |  4:24.61 |   72335  |   92195  
6  | 20:29.21 |  4:19.41 |   92196  |  111661  
7  | 24:48.62 |  4:16.73 |  111662  |  130934  
8  | 29:05.60 |  3:44.26 |  130935  |  147760  
9  | 32:50.11 |  3:17.32 |  147761  |  162567  
10  | 36:07.43 |  3:37.18 |  162568  |  178860  
11  | 39:44.61 |  3:27.63 |  178861  |  194448  
12  | 43:12.49 |  4:07.70 |  194449  |  213043  
13  | 47:20.44 |  4:25.65 |  213044  |  232983  
14  | 51:46.34 |  4:00.28 |  232984  |  251011  
15  | 55:46.62 |  3:57.62 |  251012  |  268848  
16  | 59:44.49 |  3:53.23 |  268849  |  286346  
范围状态及错误
已选择范围
文件名 D:\ONE PIECE MEMORIAL BEST [初回生産限定] CD1 .wav
峰值电平 98.1 %
范围质量 100.0 %
复制 CRC 2BC29CF7
复制成功
没有错误发生
状态报告结尾

正在读取……

这里是其它用户补充的资源(我也要补充):

暂无补充资源
正在加载,请稍等...

点击查看所有318网友评论

 

(?) [公告]留口水、评论相关规则 | [活动]每日签到 轻松领取电驴经验

    小贴士:
  1. 类似“顶”、“沙发”之类没有营养的文字,对勤劳贡献的楼主来说是令人沮丧的反馈信息。
  2. 提问之前请再仔细看一遍楼主的说明,或许是您遗漏了。
  3. 勿催片。请相信驴友们对分享是富有激情的,如果确有更新版本,您一定能搜索到。
  4. 请勿到处挖坑绊人、招贴广告。既占空间让人厌烦,又没人会搭理,于人于己都无利。
  5. 如果您发现自己的评论不见了,请参考以上4条。