v

您的位置:VeryCD综艺纪录片

综艺资源事务区


《我的祖国——万里海疆印象》(My Motherland)更新E06-E20/全60集/HDTV[720P]

  • 状态: 精华资源
  • 摘要:
    发行时间2009年
    地区大陆
    语言普通话
  • 时间: 2010/03/11 20:54:48 发布 | 2010/03/26 15:22:24 更新
  • 分类: 综艺  纪录片 

暮云春树

精华资源: 62

全部资源: 67

相关: 分享到新浪微博   转播到腾讯微博   分享到开心网   分享到人人   分享到QQ空间   订阅本资源RSS更新   美味书签  subtitle
该内容尚未提供权利证明,无法提供下载。
中文名我的祖国——万里海疆印象
英文名My Motherland
资源格式720P
版本更新E06-E20/全60集/HDTV
发行时间2009年
制作发行CCTVHD
CMCT共享
地区大陆
语言普通话
简介

IPB Image
简介:
这套我的祖国——万里海疆印象国庆特别节目,以万里海疆快乐行拍摄组的拍摄路线为顺序,全片共分60集,每集20分钟,每集节目均由一幅万里海疆图引入,展现当地的自然风光、历史文化、经济发展及民族风情等多方面的内容,重点选取其最有代表性的内容,给予集中体现!

目录:
第1集 序章 第2集 丹东 第3集 大连 第4集 营口 第5集 盘锦 第6集 锦州

第7集 葫芦岛 第8集 秦皇岛 第9集 唐山 第10-11集 天津 第12集 沧州

第13集 东营 第14集 潍坊 第15集 烟台 第16集 威海 第17集 青岛 第18集 日照

第19集 连云港 第20集 盐城 第21集 南通 第22-23集 上海 第24集 嘉兴

第25-26集 杭州 第27集 绍兴 第28集 宁波 第29集 舟山 第30集 台州

第31集 温州 第32集 宁德 第33集 武夷山 第34集 福州 第35集 莆田 第36集 泉州

第37集 厦门 第38集 漳州 第39集 潮州 第40集 汕头 第41集 揭阳 第42集 汕尾

第43集 惠州 第44-45集 深圳 第46-47集 香港 第48集 东莞

第49集 佛山 第50集 江门 第51集 中山 第52集 珠海 第53集 澳门 第54集 阳江

第55集 茂名 第56集 湛江 第57集 北海 第58集 钦州 第59集 防城港 第60集 结尾

http://www.luangh.com/up/files/5/nicholasshan/My.Motherland.EP01.1080i.HDTV.MPEG2-HDC.REClub%5B13-10-23%5D.jpg
http://www.luangh.com/up/files/5/nicholasshan/My.Motherland.EP60.1080i.HDTV.MPEG2-HDC.REClub%5B13-07-26%5D.jpg

代码

F:\My.Motherland.720p.HDTV.x264-HDC.REClub\My.Motherland.EP01.720p.HDTV.x264-HDC.REClub.mkv
   General
      Complete name : F:\My.Motherland.720p.HDTV.x264-HDC.REClub\My.Motherland.EP01.720p.HDTV.x264-HDC.REClub.mkv
      Format : Matroska
      File size : 699 MiB
      Duration : 19mn 56s
      Overall bit rate : 4 904 Kbps
      Encoded date : UTC 2010-01-21 09:29:55
      Writing application : mkvmerge v3.0.0 ('Hang up your Hang-Ups') built on Dec 12 2009 15:20:35
      Writing library : libebml v0.7.9 + libmatroska v0.8.1
   Video #1
      ID : 1
      Format : AVC
      Format/Info : Advanced Video Codec
      Format profile : High@L4.1
      Format settings, CABAC : Yes
      Format settings, ReFrames : 7 frames
      Muxing mode : Container profile=Unknown@4.1
      Codec ID : V_MPEG4/ISO/AVC
      Duration : 19mn 56s
      Bit rate : 4 359 Kbps
      Nominal bit rate : 4 455 Kbps
      Width : 1 280 pixels
      Height : 720 pixels
      Display aspect ratio : 16:9
      Frame rate : 25.000 fps
      Resolution : 8 bits
      Colorimetry : 4:2:0
      Scan type : Progressive
      Bits/(Pixel*Frame) : 0.189
      Stream size : 622 MiB (89%)
      Writing library : x264 core 68 r1183M f21daff
      Encoding settings : cabac=1 / ref=7 / deblock=1:-3:-3 / analyse=0x3:0x133 / me=umh / subme=8 / psy_rd=1.0:0.0 / mixed_ref=1 / me_range=24 / chroma_me=1 / trellis=2 / 8x8dct=1 / cqm=0 / deadzone=21,11 / chroma_qp_offset=-2 / threads=12 / nr=0 / decimate=1 / mbaff=0 / bframes=3 / b_pyramid=1 / b_adapt=2 / b_bias=0 / direct=3 / wpredb=1 / keyint=250 / keyint_min=25 / scenecut=40 / rc=2pass / bitrate=4455 / ratetol=1.0 / qcomp=0.60 / qpmin=10 / qpmax=51 / qpstep=4 / cplxblur=20.0 / qblur=0.5 / vbv_maxrate=50000 / vbv_bufsize=50000 / ip_ratio=1.40 / pb_ratio=1.30 / aq=1:1.00
      Language : English
   Audio #2
      ID : 2
      Format : AC-3
      Format/Info : Audio Coding 3
      Codec ID : A_AC3
      Duration : 19mn 56s
      Bit rate mode : Constant
      Bit rate : 448 Kbps
      Channel(s) : 2 channels
      Channel positions : L R
      Sampling rate : 48.0 KHz
      Video delay : 32ms
      Stream size : 63.9 MiB (9%)

正在读取……

这里是其它用户补充的资源(我也要补充):

shenhao1689 2010/07/18 16:21:24 补充
...

该内容尚未提供权利证明,无法提供下载。
正在加载,请稍等...

点击查看所有166网友评论

 

(?) [公告]留口水、评论相关规则 | [活动]每日签到 轻松领取电驴经验

    小贴士:
  1. 类似“顶”、“沙发”之类没有营养的文字,对勤劳贡献的楼主来说是令人沮丧的反馈信息。
  2. 提问之前请再仔细看一遍楼主的说明,或许是您遗漏了。
  3. 勿催片。请相信驴友们对分享是富有激情的,如果确有更新版本,您一定能搜索到。
  4. 请勿到处挖坑绊人、招贴广告。既占空间让人厌烦,又没人会搭理,于人于己都无利。
  5. 如果您发现自己的评论不见了,请参考以上4条。