v

您的位置:VeryCD动漫电视动画

动漫资源事务区


《狼雨》(wolf's Rain)Exiled-Destiny[DVDRip]

  • 状态: 精华资源
  • 摘要:
    发行时间2003年
    语言日语
  • 时间: 2010/02/04 20:03:08 发布 | 2010/02/07 00:20:12 更新
  • 分类: 动漫  电视动画 

古怪佬

精华资源: 2

全部资源: 4

相关: 分享到新浪微博   转播到腾讯微博   分享到开心网   分享到人人   分享到QQ空间   订阅本资源RSS更新   美味书签  subtitle
该内容尚未提供权利证明,无法提供下载。
该内容尚未提供权利证明,无法提供下载。

中文名狼雨
英文名wolf's Rain
资源格式DVDRip
版本Exiled-Destiny
发行时间2003年
地区日本
语言日语
简介

IPB Image
【片名】 狼雨
【字幕】 根据POPGO字幕调整了时间轴
【格式】 MKV

引用
是国外EXILED-DESTINY小组制作的DVDRIP,我将里面的英文配音与字幕去掉后,重新封装而成.
本人ADSL2M上传,时间一般在晚上,抱歉.


【剧情介绍】

在某个荒废的星球中,地表上的圆顶都市中有一个角落,一匹受了伤的狼流浪到了这里。在这个世界中,狼是二百年前就已经绝种的传说生物。狼拥有化为人形、迷惑人类的能力。狼牙就是这种存活下来、数量极少的狼之一。他在这里遇见了狼爪、狼髭、狼嚎。他们为了追寻存在於世界某处的乐园,开始展开了流浪的旅程。最后,他们是否能抵达千辛万苦所追寻的「乐园」呢?

本作是以逐步迈向衰亡的近未来都市作为故事发展的舞台,因此在故事中,有许多腐朽的废墟会慢慢出现,其中之一就是洁纱所沈睡的研究所。包围在洁纱身边的,尽是一些怪异莫名的实验机器。这整部作品都是以美丽的美术背景为支撑点,而酝酿出独特的哥德式气氛。

【人物介绍】

狼牙
成长的过程与人类社会毫无关联。个性相当高傲,但也因为不知人间世故冷暖,所以性格纯真。他深信在世界上存在着「乐园」,并决定开始追寻的旅程。

狼爪
是街头少年团体的领袖。虽然习惯了融入人类社会的生活,但与狼牙相遇之后,就一同踏上了追寻的旅途。不轻易让人窥探内心

狼髭
有点迷糊的家伙。鼻子灵敏,体格也相当不错,处世相当圆滑。他八面玲珑的个性也会延伸到异性身上吗?

狼嚎
个性相当胆小,但总是喜欢虚张声势。从小被人类所饲养,在饲主过世后开始独自生活。一遇到同样是狼的狼牙一伙就跟着一起行动。

洁纱
被称为月花之女的谜样般少女。在研究所中一直沉睡着,但是当狼牙出现的时候,她也同时睁开了双眼。

【背景知识】

狼----被人们认为已经绝种的传说中生物。拥有特殊的能力,可以隐藏它们的原形,让人只看到它们所幻化成的「人形」,然后进入城市中混在人群里生活。

月之花----吸收月光而绽放的花朵。因为传说在乐园中遍地都绽放着月之花,所以只要循着月之花所散发出来的芬芳,就可以发现前往乐园的方向。

乐园----据说存在於这个世界的某处。以往人类文明灭亡之时狼所居住的地方。但是事实上却从来没有人真正到过那里。


引用
文件信息


F:\Cartoon\Wolf's Rain\[Exiled-Destiny] Wolf's Rain Ep01 咆哮の街角.mkv
General
Complete name : F:\Cartoon\Wolf's Rain\[Exiled-Destiny] Wolf's Rain Ep01 咆哮の街角.mkv
Format : Matroska
File size : 305 MiB
Duration : 23mn 24s
Overall bit rate : 1 821 Kbps
Movie name : Wolf's Rain - 01 - 咆哮の街角
Encoded date : UTC 2010-01-11 12:03:00
Writing application : mkvmerge v3.0.0 ('Hang up your Hang-Ups') 编译于 Dec 12 2009 15:20:35
Writing library : libebml v0.7.9 + libmatroska v0.8.1
Video #1
ID : 1
Format : AVC
Format/Info : Advanced Video Codec
Format profile : High@L5.1
Format settings, CABAC : Yes
Format settings, ReFrames : 11 frames
Muxing mode : Container profile=Unknown@5.1
Codec ID : V_MPEG4/ISO/AVC
Duration : 23mn 22s
Bit rate : 1 592 Kbps
Nominal bit rate : 2 024 Kbps
Width : 640 pixels
Height : 480 pixels
Display aspect ratio : 4:3
Frame rate : 29.970 fps
Resolution : 24 bits
Colorimetry : 4:2:0
Scan type : Progressive
Bits/(Pixel*Frame) : 0.173
Stream size : 266 MiB (87%)
Title : 咆哮の街角
Writing library : x264 core 54 svn-602M
Encoding settings : cabac=1 / ref=8 / deblock=1:-6:-6 / analyse=0x3:0x133 / me=umh / subme=6 / brdo=1 / mixed_ref=1 / me_range=16 / chroma_me=1 / trellis=2 / 8x8dct=1 / cqm=0 / deadzone=21,11 / chroma_qp_offset=0 / slices=2 / nr=0 / decimate=1 / mbaff=0 / bframes=3 / b_pyramid=1 / b_adapt=1 / b_bias=0 / direct=3 / wpredb=1 / bime=1 / keyint=250 / keyint_min=25 / scenecut=40 / rc=2pass / bitrate=2024 / ratetol=1.0 / rceq='blurCplx^(1-qComp)' / qcomp=0.60 / qpmin=10 / qpmax=51 / qpstep=4 / cplxblur=20.0 / qblur=0.5 / ip_ratio=1.40 / pb_ratio=1.30
Language : English
Audio #2
ID : 2
Format : AC-3
Format/Info : Audio Coding 3
Codec ID : A_AC3
Duration : 23mn 24s
Bit rate mode : Constant
Bit rate : 192 Kbps
Channel(s) : 2 channels
Channel positions : L R
Sampling rate : 48.0 KHz
Stream size : 32.1 MiB (11%)
Language : Japanese

正在读取……

这里是其它用户补充的资源(我也要补充):

暂无补充资源
正在加载,请稍等...

点击查看所有170网友评论

 

(?) [公告]留口水、评论相关规则 | [活动]每日签到 轻松领取电驴经验

    小贴士:
  1. 类似“顶”、“沙发”之类没有营养的文字,对勤劳贡献的楼主来说是令人沮丧的反馈信息。
  2. 提问之前请再仔细看一遍楼主的说明,或许是您遗漏了。
  3. 勿催片。请相信驴友们对分享是富有激情的,如果确有更新版本,您一定能搜索到。
  4. 请勿到处挖坑绊人、招贴广告。既占空间让人厌烦,又没人会搭理,于人于己都无利。
  5. 如果您发现自己的评论不见了,请参考以上4条。