v

您的位置:VeryCD动漫电视动画

动漫资源事务区


《科学的超电磁炮》(Toaru Kagaku no Railgun)[原装Blu-ray][m2ts][更新Vol.1.part2][1080P]

  • 状态: 精华资源
  • 摘要:
    发行时间2009年
    语言日语
  • 时间: 2010/01/11 22:15:05 发布 | 2010/03/23 13:09:25 更新
  • 分类: 动漫  电视动画 

sweetdreamday

精华资源: 14

全部资源: 15

相关: 分享到新浪微博   转播到腾讯微博   分享到开心网   分享到人人   分享到QQ空间   订阅本资源RSS更新   美味书签  subtitle
该内容尚未提供权利证明,无法提供下载。
中文名科学的超电磁炮
英文名Toaru Kagaku no Railgun
资源格式1080P
版本[原装Blu-ray][m2ts][更新Vol.1.part2]
发行时间2009年
地区日本
语言日语
简介

IPB Image
以镰池和马所著的轻小说「魔法禁书目录」中的人气角色御坂美琴为主角的外传漫画「科学超电磁炮」(作画:冬川基),早在其本篇「魔法禁书目录」TV版完结之际就宣告了动画化计划。目前已确定TV版的「科学超电磁炮」将于今年10月开始播映,动画制作将继续由本篇动画「魔法禁书目录」的制作会社J.C.STAFF负责,在「蜂蜜与四叶草II」「偶像大师」「龙虎斗」等作中有出色表现的长井龙雪将出任本作监督,动画人设仍由本篇动画的田中雄一负责,系列构成则是「后天的方向」「剑豪生死斗」「妄想代理人」的水上清资,并且他在本篇动画中也有参与过剧本方面的工作。声优方面,御坂美琴、白井黑子、上条当麻将继续沿用本篇动画的阵容,而在电磁炮中登场的另两位重要角色初春饰利和佐天泪子则分别由近期有活跃表现的丰崎爱生和伊藤加奈惠出演。
音乐方面,剧中的BGM仍由I've sound操刀,遗憾的是片头曲和片尾曲则不是继续如本篇般由I've的歌姬献唱,但已决定新主唱(南条爱乃)的fripSide和ELISA所带来的音乐还是满值得期待的。

引用
Server : eDonkeyServer No2 , ed2k://|server|212.63.206.35|4242|/
星期一至五4点开始补源 !! 星期六至日10点开始补源 !!
<Xtreme强力发佈>
90KB/s上传速度

代码
General
ID                               : 0
Complete name                    : F:\BDMV\STREAM\00001.m2ts
Format                           : BDAV
Format/Info                      : Blu-ray Video
File size                        : 7.23 GiB
Duration                         : 25mn 12s
Overall bit rate                 : 41.1 Mbps
Maximum Overall bit rate         : 48.0 Mbps

Video
ID                               : 4113 (0x1011)
Menu ID                          : 1 (0x1)
Format                           : AVC
Format/Info                      : Advanced Video Codec
Format profile                   : High@L4.1
Format settings, CABAC           : Yes
Format settings, ReFrames        : 2 frames
Duration                         : 25mn 12s
Bit rate                         : 36.4 Mbps
Width                            : 1 920 pixels
Height                           : 1 080 pixels
Display aspect ratio             : 16:9
Frame rate                       : 23.976 fps
Resolution                       : 24 bits
Colorimetry                      : 4:2:0
Scan type                        : Progressive
Bits/(Pixel*Frame)               : 0.732
Stream size                      : 6.40 GiB (89%)

Audio #1
ID                               : 4352 (0x1100)
Menu ID                          : 1 (0x1)
Format                           : PCM
Format settings, Endianness      : Big
Format settings, Sign            : Signed
Muxing mode                      : Blu-ray
Duration                         : 25mn 12s
Bit rate mode                    : Constant
Bit rate                         : 1 536 Kbps
Channel(s)                       : 2 channels
Channel positions                : Front: L R
Sampling rate                    : 48.0 KHz
Resolution                       : 16 bits
Stream size                      : 277 MiB (4%)

Audio #2
ID                               : 4353 (0x1101)
Menu ID                          : 1 (0x1)
Format                           : PCM
Format settings, Endianness      : Big
Format settings, Sign            : Signed
Muxing mode                      : Blu-ray
Duration                         : 25mn 12s
Bit rate mode                    : Constant
Bit rate                         : 1 536 Kbps
Channel(s)                       : 2 channels
Channel positions                : Front: L R
Sampling rate                    : 48.0 KHz
Resolution                       : 16 bits
Stream size                      : 277 MiB (4%)


引用
更多高清动漫可到 Blu-ray 蓝 光 动 漫

正在读取……

这里是其它用户补充的资源(我也要补充):

暂无补充资源
正在加载,请稍等...

点击查看所有32网友评论

 

(?) [公告]留口水、评论相关规则 | [活动]每日签到 轻松领取电驴经验

    小贴士:
  1. 类似“顶”、“沙发”之类没有营养的文字,对勤劳贡献的楼主来说是令人沮丧的反馈信息。
  2. 提问之前请再仔细看一遍楼主的说明,或许是您遗漏了。
  3. 勿催片。请相信驴友们对分享是富有激情的,如果确有更新版本,您一定能搜索到。
  4. 请勿到处挖坑绊人、招贴广告。既占空间让人厌烦,又没人会搭理,于人于己都无利。
  5. 如果您发现自己的评论不见了,请参考以上4条。