v

您的位置:VeryCD综艺体育节目

综艺资源事务区


《天下足球华彩2009》(TOTAL SOCCER)更新2010.01.04华彩2009下期[TVRip]

  • 状态: 精华资源
  • 摘要:
    发行时间2009年12月28日
    地区大陆
    语言普通话
  • 时间: 2009/12/30 08:01:05 发布 | 2010/01/05 06:45:06 更新
  • 分类: 综艺  体育节目 

abcrci

精华资源: 5

全部资源: 6

相关: 分享到新浪微博   转播到腾讯微博   分享到开心网   分享到人人   分享到QQ空间   订阅本资源RSS更新   美味书签  subtitle
该内容尚未提供权利证明,无法提供下载。
中文名天下足球华彩2009
英文名TOTAL SOCCER
资源格式TVRip
版本更新2010.01.04华彩2009下期
发行时间2009年12月28日
电视台CCTV5
主持人段暄
地区大陆
语言普通话
简介

IPB Image
年终特别节目。分两期。下期2010年1月4日播出。值得下载收藏。

2010.01.04这期录制失败,百大进球那少了几分钟,很失望,就不压成AVI发布了。提供一个江城足球网的版本给大家下载。

3e网通服务器做种中

送上段暄踢篮球的广告。哈哈

http://bbs.sports.wuhan.net.cn/attachments/forumid_52/20100105_1a33db1f129e1aa63debszQGF36btqzb.jpg

代码
[天下足球华彩2009]12.28.TVRip.Xvid-abcrci.avi
   General
      Complete name : [天下足球华彩2009]12.28.TVRip.Xvid-abcrci.avi
      Format : AVI
      Format/Info : Audio Video Interleave
      File size : 1.37 GiB
      Duration : 1h 45mn
      Overall bit rate : 1 850 Kbps
      Writing application : VirtualDubMod 1.5.10.2 (build 2540/release)
      Writing library : VirtualDubMod build 2540/release
   Video #0
      ID : 0
      Format : MPEG-4 Visual
      Format profile : Advanced Simple@L5
      Format settings, BVOP : Yes
      Format settings, QPel : No
      Format settings, GMC : No warppoints
      Format settings, Matrix : Default (MPEG)
      Codec ID : XVID
      Codec ID/Hint : XviD
      Duration : 1h 45mn
      Bit rate : 1 727 Kbps
      Width : 672 pixels
      Height : 512 pixels
      Display aspect ratio : 4:3
      Frame rate : 25.000 fps
      Resolution : 8 bits
      Colorimetry : 4:2:0
      Scan type : Progressive
      Bits/(Pixel*Frame) : 0.201
      Stream size : 1.28 GiB (93%)
      Writing library : XviD 1.2.1 (UTC 2008-12-04)
   Audio #1
      ID : 1
      Format : MPEG Audio
      Format version : Version 1
      Format profile : Layer 3
      Format_Settings_Mode : Joint stereo / MS Stereo
      Codec ID : 55
      Codec ID/Hint : MP3
      Duration : 1h 45mn
      Bit rate mode : Variable
      Bit rate : 110 Kbps
      Nominal bit rate : 128 Kbps
      Channel(s) : 2 channels
      Sampling rate : 48.0 KHz
      Stream size : 83.1 MiB (6%)
      Alignment : Aligned on interleaves
      Interleave, duration : 24 ms (0.60 video frame)
      Interleave, preload duration : 471 ms
      Writing library : LAME3.90.
      Encoding settings : -m j -V 4 -q 2 -lowpass 17.6 --abr 128

代码
编码: x264

码率:1800 kbps

分辨率:720 x 540

大小:1.57GB

看点:2010年世界足坛五大悬念、09巅峰对决、2009年世界足坛百大进球(下)

正在读取……

这里是其它用户补充的资源(我也要补充):

暂无补充资源
正在加载,请稍等...

点击查看所有48网友评论

 

(?) [公告]留口水、评论相关规则 | [活动]每日签到 轻松领取电驴经验

    小贴士:
  1. 类似“顶”、“沙发”之类没有营养的文字,对勤劳贡献的楼主来说是令人沮丧的反馈信息。
  2. 提问之前请再仔细看一遍楼主的说明,或许是您遗漏了。
  3. 勿催片。请相信驴友们对分享是富有激情的,如果确有更新版本,您一定能搜索到。
  4. 请勿到处挖坑绊人、招贴广告。既占空间让人厌烦,又没人会搭理,于人于己都无利。
  5. 如果您发现自己的评论不见了,请参考以上4条。