v

您的位置:VeryCD综艺纪录片

综艺资源事务区


《尘封核爆》(Trinity And Beyond)rmvb+x264[720P]

  • 状态: 精华资源
  • 摘要:
    发行时间1995年
    地区美国
    语言英语
  • 时间: 2009/12/17 13:26:34 发布 | 2009/12/17 18:43:44 更新
  • 分类: 综艺  纪录片 

vwing1

精华资源: 47

全部资源: 59

相关: 分享到新浪微博   转播到腾讯微博   分享到开心网   分享到人人   分享到QQ空间   订阅本资源RSS更新   美味书签  subtitle
该内容尚未提供权利证明,无法提供下载。
中文名尘封核爆
英文名Trinity And Beyond
资源格式720P
版本rmvb+x264
发行时间1995年
制作发行Discovery
地区美国
语言英语
简介

IPB Image

Discovery 尘封核爆 RMVB 1.12G 1280高清
中文名称 尘封核爆
英文名称 Trinity and Beyond
别  名 Atomic Bomb Movie
发行时间 1995年
发  行 Discovery
画面尺寸 1280x780(黑边60)
地  区 美国
时  长 93min
语  言 英语
字  幕 简体中文

内容简介
  Discovery HD Trinity And Beyond 后Trinnity时代(Trinity为第一颗原子弹爆炸的地方)。
  这部纪录片描述了了从1945年到1963年核武器在美国国内和国外的发展。影片中从解密的材料中搜集来的镜头令人难以置信,剧组人员为这些镜头付出了艰辛的努力,最终使Peter Kuran赢得了一座奥斯卡奖杯。影片描述了核试验在那个年代的整个扩张过程,包括地上、水下、气球上和高层大气核试验的镜头。这些镜头不仅另人眩目,而且使人警醒。这部影片也包含了对“氢弹之父”Edward Teller的一次访谈。影片由William Shatner解说,背景音乐由莫斯科交响乐团演奏。
  如果没有莫斯科交响乐团的配乐,这部电影一定会失色不少。他们的音乐适时地烘托了那种恐怖同时又是畸形的美,渲染了影片极强的讽刺意味和主题。Shatner事实般的声音不带任何色彩,绝不会因为个人 格而使电影偏离主题。在有意地营造一种超道德的氛围方面,这部影片无疑获得了成功。导演对核冲击波后直接的含义不做深究,似乎是独立于意识形态之外,给我们留下的只是一个恐怖的景象——核冲击波。对我而言,这确实是一部恐怖的电影……瘫坐在椅子上,目瞪口呆,留下的只有深深的震撼。而同时却又被沉重的、庄严的、演奏着奇怪小调的俄罗斯交响乐包围着。你向上帝祈祷但愿总统在看这部电影的时候也感同身受。我同时又在想最后结尾中“但是……”的完美含义。如果有人说那些武器在傻瓜的手中获得安宁的话,那真是骇人听闻的掩饰,只要你看看最后一幕中彻底的疯狂就知道了。


http://bbs.3e-online.com/attachments/20090204_98d01a1fef4e948886afPhl7gsVDkdd4.jpg

http://bbs.3e-online.com/attachments/20090204_01d533d4d5d80e0c7825PrTPUvhFu1Ux.jpg

http://bbs.3e-online.com/attachments/20090204_d2b4f8e430bf0cd823090yOn87NiAbvc.jpg

http://bbs.3e-online.com/attachments/20090204_986c02f20f876673da979HV5CGht2CVX.jpg

http://bbs.3e-online.com/attachments/20090204_82e53d11ef80337aca42LYWZJXyOYQUX.jpg


http://bbs.3e-online.com/attachments/20090204_f624a338099caca955a5pn9l2RYGnQzm.jpg



引用
General
Complete name : 尘封核爆Discovery.HD.Trinity.And.Beyond.720p.rmvb
Format : RealMedia
File size : 1.12 GiB
Duration : 1h 32mn
Overall bit rate : 1 712 Kbps
Performer : 原创小组@3e帝国
Copyright : 3e帝国
Video #0
ID : 0
Format : RealVideo 4
Codec ID : RV40
Codec ID/Info : Based on AVC (H.264), Real Player 9
Duration : 1h 32mn
Bit rate : 1 616 Kbps
Width : 1 280 pixels
Height : 780 pixels
Display aspect ratio : 1.641
Frame rate : 29.000 fps
Resolution : 12 bits
Bits/(Pixel*Frame) : 0.056
Stream size : 1.05 GiB (93%)
Audio #1
ID : 1
Format : AAC
Format/Info : Advanced Audio Codec
Codec ID : racp
Codec ID/Info : Real Player 10
Duration : 1h 32mn
Bit rate : 96.0 Kbps
Channel(s) : 2 channels
Sampling rate : 44.1 KHz
Resolution : 16 bits
Stream size : 63.8 MiB (6%)

正在读取……

这里是其它用户补充的资源(我也要补充):

Saintiker 2009/12/18 18:36:58 补充
...

该内容尚未提供权利证明,无法提供下载。
正在加载,请稍等...

点击查看所有95网友评论

 

(?) [公告]留口水、评论相关规则 | [活动]每日签到 轻松领取电驴经验

    小贴士:
  1. 类似“顶”、“沙发”之类没有营养的文字,对勤劳贡献的楼主来说是令人沮丧的反馈信息。
  2. 提问之前请再仔细看一遍楼主的说明,或许是您遗漏了。
  3. 勿催片。请相信驴友们对分享是富有激情的,如果确有更新版本,您一定能搜索到。
  4. 请勿到处挖坑绊人、招贴广告。既占空间让人厌烦,又没人会搭理,于人于己都无利。
  5. 如果您发现自己的评论不见了,请参考以上4条。