v

您的位置:VeryCD综艺纪录片

综艺资源事务区


《在关塔那摩》(In Guantanamo)[MP4]

  • 状态: 精华资源
  • 摘要:
    地区美国
    语言英语
  • 时间: 2009/12/15 17:39:32 发布 | 2009/12/15 20:41:15 更新
  • 分类: 综艺  纪录片 

luckymule

精华资源: 20

全部资源: 22

相关: 分享到新浪微博   转播到腾讯微博   分享到开心网   分享到人人   分享到QQ空间   订阅本资源RSS更新   美味书签  subtitle
该内容尚未提供权利证明,无法提供下载。
中文名在关塔那摩
英文名In Guantanamo
资源格式MP4
地区美国
语言英语
简介

IPB Image
Guantanamo naval base, 'Gitmo', covers forty five square miles of Cuba inside an area under a controversial 'permanent lease' to the United States. Since 2002, the base has become synonymous with its detainment facilities for suspected terrorists. Although Barack Obama has given orders for the detention camp to be closed, the facilities remain open to this day. David Miller's quiet, powerful film is the result of three days the filmmaker spent touring the camps in May 2008 as part of a small group of media representatives allowed there. Although the event was presented as a chance to 'see inside' the working of Guantanamo, it was in fact a carefully staged PR exercise designed to yield predictable, stale, controlled media images.

The film was produced in 2008/2009 in conjunction with Yvonne Ridley, PRSNL Pictures and the VODO team. Special thanks to Editor Luca Lucarini.

IN GUANTANAMO is released via VODO under a Creative Commons Non-Commerical No-Derivs Attribution License. The filmmaker does not permit remixes but would like the work to be shared freely for non-commercial purposes.

ABOUT VODO

VODO is founded by Jamie King, one of the figures behind STEAL THIS FILM (www.stealthisfilm.com). VODO brings filmmakers together with the distribution power of the filesharing community. It aims to offer fresh, quality films on a free-to-share basis, promoted and distributed through a 'coalition' of filesharing partners that includes big names like The Pirate Bay, Mininova, Miro, TorrentFreak, Isohunt, Plube, OneDDL Vuze and and Frostwire, amongst many others.

'Together, the filesharing community has a distribution capacity that rivals and even exceeds that of the mainstream media,' says Jamie King. 'VODO aims to leverage that power for the benefit of filmmakers and other creators. By sharing films freely through the most popular and fastest growing filesharing sites, we're building audiences in the hundreds of thousands for artists. That has material value for these filmmakers, through raised profile, donations and marketing. It's a win-win situation and it's the future of distributing media after copyright.'

Followers of release groups like aXXo will be familiar with the model. But VODO is a release group with a twist. Not only are artists voluntarily sharing: downloaders can choose to make voluntary donations to creators. VODO lets creators manage their own donation links, with all donations going directly to the filmmaker. Regular supporters of the VODO project will receive access to all the films being considered for release.

VODO aims to release at least one film per month during the rest of 2009 and 2010. Forthcoming titles include the premiere of 'In Guantanamo', a documentary by first-time director David Miller that provides unprecedented access to the Guantanmo prison camps - but King says that fiction titles, animation and shorts will also be on the distribution list. 'During 2010 VODO will build out a series of revenue opportunities for its creators, with the free-to-share model at their core,' he explains.

ABOUT THE TEAM

VODO collaborators include Nils Hellberg of Piratbyran (Sweden, Design) and Rama Cosentino of BurnStation (Argentina, programming), with programming support by Dan O' Huiginn (UK). Members of the advisory board include Ashwin Navin, ex-CEO of Bittorrent Inc., and Peter Sunde of The Pirate Bay. VODO, which has been in development
since 2008, has been produced with the support of the Arts Council UK, Emerald Fund and the Channel 4 British Documentary Film Foundation. VODO's not hiring right now, but it is looking for voluntary collaborators to help out as it grows and takes shape. Just send an email to info@vodo.net to find out more.

代码
Format                           : MPEG-4
Format profile                   : Base Media
Codec ID                         : isom
File size                        : 238 MiB
Duration                         : 22mn 13s
Overall bit rate                 : 1 495 Kbps
Movie name                       : In Guantanamo
Performer                        : David Miller
Screenplay by                    : David Miller
Encoded date                     : 2008
Tagged date                      : UTC 1970-01-01 00:00:00
Writing application              : Lavf52.16.0

Video
ID                               : 1
Format                           : AVC
Format/Info                      : Advanced Video Codec
Format profile                   : Baseline@L3.1
Format settings, CABAC           : No
Format settings, ReFrames        : 1 frame
Codec ID                         : avc1
Codec ID/Info                    : Advanced Video Coding
Duration                         : 22mn 13s
Bit rate mode                    : Variable
Bit rate                         : 1 327 Kbps
Width                            : 1 024 pixels
Height                           : 576 pixels
Display aspect ratio             : 16/9
Frame rate mode                  : Constant
Frame rate                       : 25.000 fps
Resolution                       : 24 bits
Colorimetry                      : 4:2:0
Scan type                        : Progressive
Bits/(Pixel*Frame)               : 0.090
Stream size                      : 211 MiB (89%)
Encoded date                     : UTC 1970-01-01 00:00:00
Tagged date                      : UTC 1970-01-01 00:00:00

Audio
ID                               : 2
Format                           : AAC
Format/Info                      : Advanced Audio Codec
Format version                   : Version 4
Format profile                   : LC
Format settings, SBR             : No
Codec ID                         : 40
Duration                         : 22mn 13s
Bit rate mode                    : Variable
Bit rate                         : 163 Kbps
Channel(s)                       : 2 channels
Channel positions                : L R
Sampling rate                    : 48.0 KHz
Resolution                       : 16 bits
Stream size                      : 26.0 MiB (11%)
Encoded date                     : UTC 1970-01-01 00:00:00
Tagged date                      : UTC 1970-01-01 00:00:00

无字幕
上传:500K-1024K/S,内网,lowid
8:00-23:00,每天至少10小时在线

IPB Image
IPB Image
IPB Image

正在读取……

这里是其它用户补充的资源(我也要补充):

暂无补充资源
正在加载,请稍等...

点击查看所有13网友评论

 

(?) [公告]留口水、评论相关规则 | [活动]每日签到 轻松领取电驴经验

    小贴士:
  1. 类似“顶”、“沙发”之类没有营养的文字,对勤劳贡献的楼主来说是令人沮丧的反馈信息。
  2. 提问之前请再仔细看一遍楼主的说明,或许是您遗漏了。
  3. 勿催片。请相信驴友们对分享是富有激情的,如果确有更新版本,您一定能搜索到。
  4. 请勿到处挖坑绊人、招贴广告。既占空间让人厌烦,又没人会搭理,于人于己都无利。
  5. 如果您发现自己的评论不见了,请参考以上4条。