v

您的位置:VeryCD教育医学


《阿特金斯减肥计划 - 低碳饮食 健康一生》 (Atkins Nutritional Diet - Low Carb Diet Healthy Life)[DVDRip]

  • 状态: 精华资源
  • 摘要:
    发行日期2007年
    对白语言英语
    文字语言英文
  • 时间: 2009/12/14 13:34:21 发布 | 2010/10/12 20:33:50 更新
  • 分类: 教育  医学 

FlyChina

精华资源: 2

全部资源: 3

相关: 分享到新浪微博   转播到腾讯微博   分享到开心网   分享到人人   分享到QQ空间   订阅本资源RSS更新   美味书签  subtitle
该内容尚未提供权利证明,无法提供下载。
中文名阿特金斯减肥计划 - 低碳饮食 健康一生
英文名Atkins Nutritional Diet - Low Carb Diet Healthy Life
别名阿特金斯博士的新饮食革命
资源格式DVDRip
发行日期2007年
地区美国
对白语言英语
文字语言英文
简介

IPB Image


  《阿特金斯医生的新饮食习惯》彻底颠覆传统饮食习惯,创建新健康饮食时代!

  减轻体重!增强体能!身材健美!《阿特金斯医生的新饮食习惯》将告诉你如何实现这些目标。

  不仅如此,本节目还将告诉你如何一劳永逸地改变你的人生。

  你将要观看的是一本销售超千万张的畅销光碟。可能有几亿人使用过光碟中的方法。很多人说这是他们试过的最有效的减肥之道,也是很多人战胜糖尿病、心脏病、高血压等疾病,从而通往理想健康状态的最佳选择。确实如此!

  你将从本光碟中学到一种有益健康长寿的革命性的营养饮食法。有朝一日,读过这本书的人会说:“我知道我将会减轻体重,但我从来没想到自己的健康状况会有如此大的改善,身体健康、远离疾病。

作者简介

罗伯特·C·阿特金斯博士是纽约市阿特金斯补充医学研究中心的创办人和医务主席,是罗伯特·C·阿特金斯医生基金会的主席。1972年,他发表了第一本有关减肥的书《饮食革命》——第一部阐述作降低碳水化合物摄入量的方案实现减轻体重的重要著作,几十年后的今天,经过修订和更新的版本《新饮食习惯》问世,在《纽约时报》畅销书排行榜上速留了4年多时间。此外,他还出版了另一些阐述营养医学的书,包括《阿特金斯医生的快捷新饮食食谱》、《阿特金斯医生的维生素营养妙方》以及《阿特金斯医生的挑战年龄饮食法》。

媒体推荐

  你是否曾经强迫自己只喝脱脂奶?是否在面对诱人美食时望而却步?是否每吃一种食物都要思前想后?……当今社会,糖尿病、高血压、心脏病患者与肥胖者的比例之所以迅速上升,一些不正确的理论和信息难辞其咎。对于到底什么才是健康的饮食方法,错误的信息满天飞,许多人认为盲目的追求低脂就能减肥,然而事实并非如此,美国医学博士罗伯特·C·阿特金斯医生指出,碳水化合物才是肥胖的罪魁祸首!

  几十年前,阿特金斯医生发表的全世界第一本有关减肥的书《饮食革命》曾风靡全球。从此有关“减肥”的话题便在我们的世界中从未停止过讨论;“减肥”一词也从这本书后风靡全世界,成为全世界人们使用频率最高的词汇之一。在今年北京图书订货会上,中国青年出版社将隆重推出阿特金斯医生的最新研究成果——《新饮食习惯》,该书增补了关于阿特金斯博士安全性及有效性的最新研究成果,汇集数十种可助您快速启动减肥过程的新食谱和新建议。

  一场轰轰烈烈的健康饮食革命即将掀起,罗伯特·C·阿特金斯博士的阿特金斯法将会轻松帮助受减肥所困的人们实现完美塑形的梦想。想减肥的您马上就会拥有制胜利器。


编辑推荐

《阿特金斯医生的新饮食习惯》连续四年高居《纽约时报》畅销书榜首,实施阿特金斯法,创建新健康饮食时代,减轻体重,健康体魄,身材健美。本书原名《饮食革命》,改变了美国人的饮食习惯,引领人们进入的健康人生。数千万人从中受益,风靡全球的超级畅销书!
《阿特金斯医生的新饮食习惯》帮助数百万人减轻了体重,重获健康。现在,这位当属世界第一的饮食与补充疗法专家为新的世纪更新了他那已经得到验证的营养饮食计划,根据得到科学依据支持的控制碳水化合物饮食原则而提出了新的信息。
更新了饮食习惯包括:
实现永久性的减肥和一生的安康,所有你需要知道的事情。
控制碳水化合物的饮食新食谱,为你的提供美味的早餐、午餐。
晚餐、小吃和甜食。
全新的病例研究,最新的科学研究成果。


目录

Chapter 1 Why It Wroks - Introduction to Understanding the Basics of Rapid/Permanent Weight Loss
Chapter 2 How It Works - The Simple Keys of Switching Your Body's Metabolism to Burn Fat Now!
Chapter 3 Making It Work Forever - Doing Atkins for the Rest of My Life
Chapter 4 Q & A with Dr. Atkins & Staff - Commonly Asked Questions

更多资源及方法介绍

阿特金斯健康饮食网

视频截图

IPB Image

IPB Image

IPB Image

IPB Image

IPB Image

IPB Image

IPB Image

IPB Image

IPB Image

IPB Image

IPB Image

IPB Image

IPB Image

文件信息

[阿特金斯减肥计划.-.低碳饮食.健康一生]Atkins.Nutritional.Diet-.Low.Carb.Diet.Healthy.Life.avi
Format : AVI
Format/Info : Audio Video Interleave
File size : 726 MiB
Duration : 1h 30mn
Overall bit rate : 1 116 Kbps

Video
Format : MPEG-4 Visual
Format settings, Matrix : Default (H.263)
Codec ID : XVID
Codec ID/Hint : XviD
Duration : 1h 30mn
Bit rate : 916 Kbps
Width : 720 pixels
Height : 480 pixels
Display aspect ratio : 1.500
Frame rate : 29.970 fps
Standard : NTSC
Resolution : 24 bits
Bits/(Pixel*Frame) : 0.088
Stream size : 596 MiB (82%)

Audio
Format : MPEG Audio
Codec ID/Hint : MP3
Duration : 1h 30mn
Bit rate mode : Constant
Bit rate : 192 Kbps
Channel(s) : 2 channels
Sampling rate : 44.1 KHz
Resolution : 16 bits
Stream size : 125 MiB (17%)
Alignment : Split accross interleaves
Interleave, duration : 968 ms (29.00 video frames)

资源分类
减肥 低碳饮食 健康 食疗 美国

通过安全检查

杀毒软件:Avira AntiVir, AVG Anti-Virus
病毒库时间:2009.12.14
在线时间:全天
供源服务器:Donkey Server No2



暂没找到中文字幕,欢迎各位提供,谢谢!
20091217更新CCAV10介绍阿特金斯的两集《人物》,合在一起方便整理。

正在读取……

这里是其它用户补充的资源(我也要补充):

FlyChina 2009/12/14 13:47:58 补充
补充两个之前CCTV10《人物》栏目介绍阿特金斯的资源

该内容尚未提供权利证明,无法提供下载。

FlyChina 2009/12/16 14:33:37 补充
rmvb格式的,反正也是学习资料,当然通俗易懂不占空间的好。

该内容尚未提供权利证明,无法提供下载。
正在加载,请稍等...

点击查看所有224网友评论

 

(?) [公告]留口水、评论相关规则 | [活动]每日签到 轻松领取电驴经验

    小贴士:
  1. 类似“顶”、“沙发”之类没有营养的文字,对勤劳贡献的楼主来说是令人沮丧的反馈信息。
  2. 提问之前请再仔细看一遍楼主的说明,或许是您遗漏了。
  3. 勿催片。请相信驴友们对分享是富有激情的,如果确有更新版本,您一定能搜索到。
  4. 请勿到处挖坑绊人、招贴广告。既占空间让人厌烦,又没人会搭理,于人于己都无利。
  5. 如果您发现自己的评论不见了,请参考以上4条。