v

您的位置:VeryCD动漫电视动画

动漫资源事务区


《元气爆发》(Genki Bakuhatsu Ganbarugar)[SRL前线字幕组][全47集]更新完毕[RMVB]

  • 状态: 精华资源
  • 摘要:
    发行时间1992年4月1日
    语言日语
  • 时间: 2009/12/13 20:05:41 发布 | 2009/12/14 21:05:56 更新
  • 分类: 动漫  电视动画 

faikioscarm

精华资源: 8

全部资源: 9

相关: 分享到新浪微博   转播到腾讯微博   分享到开心网   分享到人人   分享到QQ空间   订阅本资源RSS更新   美味书签  subtitle
该内容尚未提供权利证明,无法提供下载。

视频预览:

[SRL]元气爆发01[jp_cn].rmvb,[SRL]元气爆发02[jp_cn].rmvb, ...等5个视频文件
中文名元气爆发
英文名Genki Bakuhatsu Ganbarugar
别名元気爆発ガンバルガー
资源格式RMVB
版本[SRL前线字幕组][全47集]更新完毕
发行时间1992年4月1日
地区日本
语言日语
简介

IPB Image

【作品简介】
元气伏魔(日文:元気爆発ガンバルガー,英文:Genki Bakuhatsu Ganbaruger),是由日升动画所制作,于1992年4月1日至1993年2月24日间,在东京电视台所播映的动画。

【故事简介】
在晴朗的日子下,训练忍术,但虎太郎不愿意学习,而借口逃跑,使得藤兵卫气愤不已,于是借丢出弹药,想要教训虎太郎,不料被虎太郎用木棒反击,而使弹药飞到附近的庙宇的巨大岩石上,造成不小的爆炸......只不过这一爆,却引出了恶魔,虽然后来被正义使者镇压回去,但恶魔仍不死心,便命令部下到人间作乱,于是正义使者便派出了三架机体一路追逐...这时虎太郎、与三人相互来到公园,一个惊险的相遇,便开始了他们保护这个城镇的任务......

【制作人员】

* 企划:日升动画
* 原作:矢立肇
* 故事协调:金巻兼一
* 人物设定:近藤高光
* 机械设计:やまだたかひろ(山国高裕)
* 美术监督:池田繁美
* 颜色协调:甲斐けいこ
* 摄影监督:金子行助
* 编集:瀬山武司
* 音响监督:山崎あきら
* 音乐:长谷川智树
* 设定制作:吉村章
* 制作进行:冈本英树、北村真咲
* 监督:川瀬敏文
* 制作人:池田朋之、藤波俊彦、内田健二
* 制作:株式会社テレビ东京、株式会社読売広告社、株式会社サンライズ

代码
Format                           : RealMedia
File size                        : 100 MiB
Duration                         : 23mn 28s
Overall bit rate                 : 591 Kbps
Performer                        : SRL前线字幕组
Copyright                        : bbs.cnsrl.net

Video
ID                               : 1
Format                           : RealVideo 4
Codec ID                         : RV40
Codec ID/Info                    : Based on AVC (H.264), Real Player 9
Duration                         : 23mn 28s
Bit rate                         : 495 Kbps
Width                            : 640 pixels
Height                           : 480 pixels
Display aspect ratio             : 4:3
Frame rate                       : 23.000 fps
Resolution                       : 12 bits
Bits/(Pixel*Frame)               : 0.070
Stream size                      : 83.1 MiB (83%)

Audio
ID                               : 0
Format                           : AAC
Format/Info                      : Advanced Audio Codec
Codec ID                         : raac
Codec ID/Info                    : Real Player 9
Duration                         : 23mn 28s
Bit rate                         : 96.0 Kbps
Channel(s)                       : 2 channels
Sampling rate                    : 44.1 KHz
Resolution                       : 16 bits
Stream size                      : 16.1 MiB (16%)



【载图】
IPB Image
IPB Image

引用
12月16日开始,补源时间:2点早上至3点下午


正在读取……

这里是其它用户补充的资源(我也要补充):

暂无补充资源
正在加载,请稍等...

点击查看所有27网友评论

 

(?) [公告]留口水、评论相关规则 | [活动]每日签到 轻松领取电驴经验

    小贴士:
  1. 类似“顶”、“沙发”之类没有营养的文字,对勤劳贡献的楼主来说是令人沮丧的反馈信息。
  2. 提问之前请再仔细看一遍楼主的说明,或许是您遗漏了。
  3. 勿催片。请相信驴友们对分享是富有激情的,如果确有更新版本,您一定能搜索到。
  4. 请勿到处挖坑绊人、招贴广告。既占空间让人厌烦,又没人会搭理,于人于己都无利。
  5. 如果您发现自己的评论不见了,请参考以上4条。